Omertà (2012)

Posted By: NaVi7
Omertà (2012)

Omertà (2012)
BDRip 1080p | MKV / AVC, 7313 Kbps | 1920x816 | 1h 46mn | 6.71 GB
Francais: DTS, 1509 Kbps (6 ch)
Genre: Crime | Drame | Thriller

Pierre Gauthier, à la tête de Pulsar International, une agence de sécurité de haut niveau, est appelé par Gilbert Tanguay à faire enquête sur un vaste complot. Il recrute Sophie, ex-agent du Service de renseignement canadien, afin qu'elle infiltre le milieu criminel montréalais. Son mandat: gagner la confiance de Sam Cohen et Steve Bélanger, associés à la mafia italienne. Les deux hommes participent à une arnaque visant à détourner l'or qui repose dans les coffres des banques centrales nord-américaines.

imdb

General
Unique ID : 233923349533981081172813646289354477753 (0xAFFBFF94405678BB8E0707AD6699D0B9)
Complete name : Omerta.2012.FRENCH.1080p.BluRay.DTS.x264-FOXGIRL.mkv
Format : Matroska
Format version : Version 2
File size : 6.71 GiB
Duration : 1h 46mn
Overall bit rate : 9 002 Kbps
Writing application : HandBrake 0.9.5
Writing library : libmkv 0.6.4.1

Video
ID : 1
Format : AVC
Format/Info : Advanced Video Codec
Format profile : Main@L4.0
Format settings, CABAC : Yes
Format settings, ReFrames : 4 frames
Codec ID : V_MPEG4/ISO/AVC
Duration : 1h 46mn
Bit rate : 7 313 Kbps
Nominal bit rate : 7 843 Kbps
Width : 1 920 pixels
Height : 816 pixels
Display aspect ratio : 2.35:1
Frame rate mode : Constant
Frame rate : 23.976 fps
Color space : YUV
Chroma subsampling : 4:2:0
Bit depth : 8 bits
Scan type : Progressive
Bits/(Pixel*Frame) : 0.195
Stream size : 5.46 GiB (81%)
Writing library : x264 core 112
Encoding settings : cabac=1 / ref=2 / deblock=1:0:0 / analyse=0x1:0x111 / me=hex / subme=6 / psy=1 / psy_rd=1.00:0.00 / mixed_ref=0 / me_range=16 / chroma_me=1 / trellis=0 / 8x8dct=0 / cqm=0 / deadzone=21,11 / fast_pskip=1 / chroma_qp_offset=-2 / threads=12 / sliced_threads=0 / nr=0 / decimate=1 / interlaced=0 / constrained_intra=0 / bframes=2 / b_pyramid=2 / b_adapt=1 / b_bias=0 / direct=1 / weightb=0 / open_gop=0 / weightp=2 / keyint=240 / keyint_min=23 / scenecut=40 / intra_refresh=0 / rc_lookahead=40 / rc=abr / mbtree=1 / bitrate=7843 / ratetol=1.0 / qcomp=0.60 / qpmin=3 / qpmax=51 / qpstep=4 / ip_ratio=1.40 / aq=1:1.00
Language : English
Default : Yes
Forced : No
Color primaries : BT.709
Transfer characteristics : BT.709
Matrix coefficients : BT.709

Audio
ID : 2
Format : DTS
Format/Info : Digital Theater Systems
Mode : 16
Format settings, Endianness : Big
Codec ID : A_DTS
Duration : 1h 46mn
Bit rate mode : Constant
Bit rate : 1 509 Kbps
Channel(s) : 6 channels
Channel positions : Front: L C R, Side: L R, LFE
Sampling rate : 48.0 KHz
Bit depth : 24 bits
Compression mode : Lossy
Stream size : 1.13 GiB (17%)
Language : French
Default : Yes
Forced : No


Les captures d'ecran:

Omertà (2012)

Omertà (2012)

Omertà (2012)


Bienvenue sur mon blog!

Abonnez-vous a ma newsletter!

Pas plus de miroirs!

Si vous voulez le telecharger, mais j'ai decouvert que les liens sont morts, il suffit de laisser un commentaire ou me PM!
Download Links:
Uploaded | Rapidgator
Liens vers RapidGator et Uploaded sont dans le fichier html. Telechargez le fichier et l'ouvrir dans votre navigateur.