On Body and Soul (2017)

Posted By: Tavaz
1080p (FullHD) / WEBRip IMDb
On Body and Soul (2017)

On Body and Soul (2017)
WEBRip | MKV | 1920x816 | Hungarian | H264 @ 2559 kbps | AC-3 @ 384 kbps | 1 h 55 min | 2.38 GiB
Subtitles: Spanish, English
Genre: Drama, Romance

Two introverted people find out by pure chance that they share the same dream every night. They are puzzled, incredulous, a bit frightened. As they hesitantly accept this strange coincidence, they try to recreate in broad daylight what happens in their dream.

68a66a3a70b04a56b7159402e7150d22.mkv (2.4 GB)



General
Unique ID : 62750719391270220775596729544758003614 (0x2F355954D6160D9945A3E402F584079E)
Complete name : ./68a66a3a70b04a56b7159402e7150d22.mkv
Format : Matroska
Format version : Version 4 / Version 2
File size : 2.38 GiB
Duration : 1 h 55 min
Overall bit rate : 2 945 kb/s
Encoded date : UTC 2018-02-18 10:59:54
Writing application : mkvmerge v20.0.0 ('I Am The Sun') 64-bit
Writing library : libebml v1.3.5 + libmatroska v1.4.8
Attachments : OpenSans-Semibold.ttf

Video
ID : 4
Format : AVC
Format/Info : Advanced Video Codec
Format profile : High@L4.1
Format settings : CABAC / 5 Ref Frames
Format settings, CABAC : Yes
Format settings, RefFrames : 5 frames
Codec ID : V_MPEG4/ISO/AVC
Duration : 1 h 55 min
Bit rate : 2 559 kb/s
Width : 1 920 pixels
Height : 816 pixels
Display aspect ratio : 2.35:1
Frame rate mode : Constant
Frame rate : 24.000 FPS
Color space : YUV
Chroma subsampling : 4:2:0
Bit depth : 8 bits
Scan type : Progressive
Bits/(Pixel*Frame) : 0.068
Stream size : 2.07 GiB (87%)
Writing library : x264 core 155 r2893 b00dcaf
Encoding settings : cabac=1 / ref=5 / deblock=1:0:0 / analyse=0x3:0x113 / me=hex / subme=8 / psy=1 / psy_rd=1.00:0.00 / mixed_ref=1 / me_range=16 / chroma_me=1 / trellis=2 / 8x8dct=1 / cqm=0 / deadzone=21,11 / fast_pskip=1 / chroma_qp_offset=-2 / threads=24 / lookahead_threads=4 / sliced_threads=0 / nr=0 / decimate=1 / interlaced=0 / bluray_compat=0 / constrained_intra=0 / bframes=3 / b_pyramid=2 / b_adapt=1 / b_bias=0 / direct=3 / weightb=1 / open_gop=0 / weightp=2 / keyint=240 / keyint_min=24 / scenecut=40 / intra_refresh=0 / rc_lookahead=50 / rc=crf / mbtree=1 / crf=19.0 / qcomp=0.60 / qpmin=0 / qpmax=69 / qpstep=4 / vbv_maxrate=62500 / vbv_bufsize=78125 / crf_max=0.0 / nal_hrd=none / filler=0 / ip_ratio=1.40 / aq=1:1.00
Default : Yes
Forced : No
Color range : Limited
Color primaries : BT.709
Transfer characteristics : BT.709
Matrix coefficients : BT.709

Audio
ID : 1
Format : AC-3
Format/Info : Audio Coding 3
Format settings, Endianness : Big
Codec ID : A_AC3
Duration : 1 h 55 min
Bit rate mode : Constant
Bit rate : 384 kb/s
Channel(s) : 6 channels
Channel positions : Front: L C R, Side: L R, LFE
Sampling rate : 48.0 kHz
Frame rate : 31.250 FPS (1536 SPF)
Bit depth : 16 bits
Compression mode : Lossy
Stream size : 318 MiB (13%)
Language : Hungarian
Service kind : Complete Main
Default : Yes
Forced : No

Text #1
ID : 2
Format : ASS
Codec ID : S_TEXT/ASS
Codec ID/Info : Advanced Sub Station Alpha
Duration : 1 h 48 min
Bit rate : 55 b/s
Count of elements : 861
Compression mode : Lossless
Stream size : 44.6 KiB (0%)
Title : English
Language : English
Default : Yes
Forced : Yes

Text #2
ID : 3
Format : ASS
Codec ID : S_TEXT/ASS
Codec ID/Info : Advanced Sub Station Alpha
Duration : 1 h 53 min
Bit rate : 52 b/s
Count of elements : 864
Compression mode : Lossless
Stream size : 43.9 KiB (0%)
Title : Spanish
Language : Spanish
Default : No
Forced : No





On Body and Soul (2017)


On Body and Soul (2017)


On Body and Soul (2017)


On Body and Soul (2017)


On Body and Soul (2017)