Tags
Language
Tags

One Good Turn (1931)

Posted By: Tavaz
1080p (FullHD) / BDRip IMDb
One Good Turn (1931)

One Good Turn (1931)
BluRay Remux | MKV | 1920x1080 | English | H264 @ 33993 kbps | FLAC @ 255 kbps | 20 min 50 s | 5.03 GiB
Subtitles: English
Genre: Comedy

Down and out Stan and Ollie beg for food from a friendly old lady who provides them with sandwiches. While eating, they overhear the lady's landlord tell her he's going to throw her out because she can't pay her mortgage. They don't realize that the old lady is really rehearsing for a play. Stan and Ollie decide to help the old lady by selling their car. During the auction a drunk puts a wallet in Stan's pocket. Ollie accuses Stan of robbing the old lady, but when the truth is revealed Stan takes revenge on Ollie.

74c393a0690c49ec4dd872cfbe3956fe.mkv (5.0 GB)



General
Complete name : ./74c393a0690c49ec4dd872cfbe3956fe.mkv
Format : Matroska
Format version : Version 4 / Version 2
File size : 5.03 GiB
Duration : 20 min 50 s
Overall bit rate mode : Variable
Overall bit rate : 34.5 Mb/s
Encoded date : UTC 2020-09-19 09:11:55
Writing application : mkvmerge v50.0.0 ('Awakenings') 64-bit
Writing library : libebml v1.4.0 + libmatroska v1.6.2
IMDB : tt0022227
TMDB : movie/48903

Video
ID : 1
Format : AVC
Format/Info : Advanced Video Codec
Format profile : High@L4.1
Format settings : CABAC / 4 Ref Frames
Format settings, CABAC : Yes
Format settings, RefFrames : 4 frames
Codec ID : V_MPEG4/ISO/AVC
Duration : 20 min 50 s
Bit rate mode : Variable
Bit rate : 34.0 Mb/s
Maximum bit rate : 35.0 Mb/s
Width : 1 920 pixels
Height : 1 080 pixels
Display aspect ratio : 16:9
Frame rate mode : Constant
Frame rate : 23.976 (24000/1001) FPS
Color space : YUV
Chroma subsampling : 4:2:0
Bit depth : 8 bits
Scan type : Progressive
Bits/(Pixel*Frame) : 0.684
Stream size : 4.95 GiB (98%)
Title : MPEG-4 AVC Video / 33995 kbps / 1080p / 23.976 fps / 16:9 / High Profile 4.1
Language : English
Default : Yes
Forced : No
Color range : Limited
Color primaries : BT.709
Transfer characteristics : BT.709
Matrix coefficients : BT.709

Audio #1
ID : 2
Format : FLAC
Format/Info : Free Lossless Audio Codec
Codec ID : A_FLAC
Duration : 20 min 50 s
Bit rate mode : Variable
Bit rate : 255 kb/s
Channel(s) : 2 channels
Channel positions : Front: L R
Sampling rate : 48.0 kHz
Frame rate : 11.719 FPS (4096 SPF)
Bit depth : 16 bits
Stream size : 38.0 MiB (1%)
Title : FLAC Audio / 2.0 / 48 kHz / 255 kbps / 16-bit
Writing library : libFLAC 1.3.3 (UTC 2019-08-04)
Language : English
Default : Yes
Forced : No

Audio #2
ID : 3
Format : FLAC
Format/Info : Free Lossless Audio Codec
Codec ID : A_FLAC
Duration : 20 min 50 s
Bit rate mode : Variable
Bit rate : 263 kb/s
Channel(s) : 1 channel
Channel positions : Front: C
Sampling rate : 48.0 kHz
Frame rate : 11.719 FPS (4096 SPF)
Bit depth : 16 bits
Stream size : 39.3 MiB (1%)
Title : Commentary by author/producer Randy Skretvedt
Writing library : libFLAC 1.3.3 (UTC 2019-08-04)
Language : English
Default : No
Forced : No

Text
ID : 4
Format : PGS
Codec ID : S_HDMV/PGS
Codec ID/Info : Picture based subtitle format used on BDs/HD-DVDs
Duration : 20 min 33 s
Bit rate : 30.4 kb/s
Count of elements : 620
Stream size : 4.48 MiB (0%)
Title : SDH
Language : English
Default : No
Forced : No

Menu
00:00:00.000 : en:Chapter 01
00:07:00.503 : en:Chapter 02
00:14:00.923 : en:Chapter 03





One Good Turn (1931)


One Good Turn (1931)


One Good Turn (1931)


One Good Turn (1931)


One Good Turn (1931)