Open Water 3 (2017)

Posted By: JohnSmith
Open Water 3 (2017)

Open Water 3 / Cage Dive (2017)
BDRip MD | AVI / XviD@1820 kb/s | 720x400 | 1h 20mn | 1.10 GB | Italian (dubbed): MP3, 128 kb/s (2 ch)
Genre: Drama | Horror | Thriller

Tre amici si recano in Australia allo scopo di girare un video subacqueo delle loro immersioni tra gli squali da usare come provino per un reality show estremo. Qualcosa però non va per il verso giusto e la registrazione diventerà un diario agghiacciante.




General
Complete name : A:\Open.Water.3.Cage.Dive.2017.iTALiAN.MD.BDRip.XviD-iSTANCE.avi
Format : AVI
Format/Info : Audio Video Interleave
File size : 1.10 GiB
Duration : 1 h 20 min
Overall bit rate : 1 957 kb/s
Writing library : VirtualDub build 35491/release

Video
ID : 0
Format : MPEG-4 Visual
Format profile : Advanced Simple@L5
Format settings, BVOP : 2
Format settings, QPel : No
Format settings, GMC : No warppoints
Format settings, Matrix : Default (MPEG)
Muxing mode : Packed bitstream
Codec ID : XVID
Codec ID/Hint : XviD
Duration : 1 h 20 min
Bit rate : 1 820 kb/s
Width : 720 pixels
Height : 400 pixels
Display aspect ratio : 16:9
Frame rate : 23.976 (24000/1001) FPS
Color space : YUV
Chroma subsampling : 4:2:0
Bit depth : 8 bits
Scan type : Progressive
Compression mode : Lossy
Bits/(Pixel*Frame) : 0.264
Stream size : 1.03 GiB (93%)
Writing library : XviD 67

Audio
ID : 1
Format : MPEG Audio
Format version : Version 1
Format profile : Layer 3
Mode : Joint stereo
Mode extension : MS Stereo
Codec ID : 55
Codec ID/Hint : MP3
Duration : 1 h 20 min
Bit rate mode : Constant
Bit rate : 128 kb/s
Channel(s) : 2 channels
Sampling rate : 48.0 kHz
Compression mode : Lossy
Stream size : 73.8 MiB (7%)
Alignment : Split accross interleaves
Interleave, duration : 42 ms (1.00 video frame)
Interleave, preload duratio : 500 ms
Writing library : LAME3.99r
Encoding settings : -m j -V 4 -q 3 -lowpass 17 -b 128




Screenshots

Open Water 3 (2017)

Open Water 3 (2017)

Open Water 3 (2017)