Outrage (2005)

Posted By: Polik88
Outrage (2005)

Outrage (2005)
DVDRip | English | AVI/XVID 29.970 fps 950 Kbps | 576x320 | MP3 32.0 Kbps 48.0 khz | 1h 29mn | 700 MB
Genre: Documentary

With OUTRAGE, provocative documentarian Kirby Dick confronts his most controversial topic yet. In his latest piece of cine-journalism, Dick exposes what he deems to be the rampant, hypocritical homophobia that exists in an American government that is, in fact, teeming with closeted homosexuals. Dick brings an impassioned and well-reasoned eye to his material, which should have viewers on the more conservative side of the fence paying closer attention than they would have had he taken a more blustery approach. As it stands, OUTRAGE is an illuminating, stirring call to arms. Dick interviews the political community’s most prominent gay figures–including former New Jersey governor Jim McGreevey…
General
Complete name : outrage.2009.avi
Format : AVI
Format/Info : Audio Video Interleave
File size : 700 MiB
Duration : 1h 29mn
Overall bit rate : 1 099 Kbps
Writing application : Nandub v1.0rc2

Video
ID : 0
Format : MPEG-4 Visual
Format profile : Advanced Simple@L5
Format settings, BVOP : 2
Format settings, QPel : No
Format settings, GMC : No warppoints
Format settings, Matrix : Default (H.263)
Muxing mode : Packed bitstream
Codec ID : XVID
Codec ID/Hint : XviD
Duration : 1h 29mn
Bit rate : 950 Kbps
Width : 576 pixels
Height : 320 pixels
Display aspect ratio : 16:9
Frame rate : 29.970 fps
Color space : YUV
Chroma subsampling : 4:2:0
Bit depth : 8 bits
Scan type : Progressive
Compression mode : Lossy
Bits/(Pixel*Frame) : 0.172
Stream size : 605 MiB (86%)
Writing library : XviD 1.3.0.dev55

Audio
ID : 1
Format : MPEG Audio
Format version : Version 1
Format profile : Layer 3
Mode : Joint stereo
Mode extension : MS Stereo
Codec ID : 55
Codec ID/Hint : MP3
Duration : 1h 29mn
Bit rate mode : Constant
Bit rate : 32.0 Kbps
Channel(s) : 2 channels
Sampling rate : 48.0 KHz
Compression mode : Lossy
Delay relative to video : 8ms
Stream size : 86.1 MiB (12%)
Alignment : Aligned on interleaves
Interleave, duration : 24 ms (0.72 video frame)
Interleave, preload duration : 136 ms
Writing library : LAME3.96

Screenshots

Outrage (2005)

Outrage (2005)

Outrage (2005)

no mirrors please, Follow The Rules
Visit Polik88 Blog Here
no password