PBS - After Newtown: Guns in America (2013)

Posted By: Polik88
PBS - After Newtown: Guns in America (2013)

PBS - After Newtown: Guns in America (2013)
English | MP4 | 960x540 | AVC 1417 Kbps 29.970 fps | AAC 129 Kbps 48.0 khz | 56mn 10s | 623 MB
Genre: Documentary

Guns in America is an unprecedented exploration of America's enduring relationship with firearms. From the first European settlements in the New World to frontier justice; from 19th Century immigrant riots to gangland violence in the Roaring Twenties; from the Civil War to Civil Rights, guns have been at center of our national narrative for four hundred years. Americans have relied on guns to sustain communities, challenge authority, and keep the peace. Efforts to curtail their distribution and ownership have triggered epic political battles. On one side, the cry for gun control gets louder with each mass shooting. And on the other, Charlton Heston's 2000 rallying cry, "From my cold, dead hands," still resonates across the land.
General
Complete name : PBS.After.Newtown.Guns.in.America.mp4
Format : MPEG-4
Format profile : Base Media
Codec ID : isom
File size : 623 MiB
Duration : 56mn 10s
Overall bit rate mode : Variable
Overall bit rate : 1 550 Kbps
Encoded date : UTC 2013-02-20 13:50:19
Tagged date : UTC 2013-02-20 13:50:19

Video
ID : 1
Format : AVC
Format/Info : Advanced Video Codec
Format profile : High@L3.1
Format settings, CABAC : Yes
Format settings, ReFrames : 6 frames
Codec ID : avc1
Codec ID/Info : Advanced Video Coding
Duration : 56mn 10s
Bit rate : 1 417 Kbps
Maximum bit rate : 6 178 Kbps
Width : 960 pixels
Height : 540 pixels
Display aspect ratio : 16:9
Frame rate mode : Constant
Frame rate : 29.970 fps
Color space : YUV
Chroma subsampling : 4:2:0
Bit depth : 8 bits
Scan type : Progressive
Bits/(Pixel*Frame) : 0.091
Stream size : 569 MiB (91%)
Writing library : x264 core 129
Encoding settings : cabac=1 / ref=6 / deblock=1:0:0 / analyse=0x3:0x113 / me=umh / subme=10 / psy=1 / psy_rd=2.00:1.00 / mixed_ref=1 / me_range=24 / chroma_me=1 / trellis=2 / 8x8dct=1 / cqm=0 / deadzone=21,11 / fast_pskip=1 / chroma_qp_offset=-4 / threads=3 / lookahead_threads=1 / sliced_threads=0 / nr=0 / decimate=1 / interlaced=0 / bluray_compat=0 / constrained_intra=0 / bframes=9 / b_pyramid=2 / b_adapt=2 / b_bias=0 / direct=1 / weightb=1 / open_gop=0 / weightp=2 / keyint=300 / keyint_min=30 / scenecut=40 / intra_refresh=0 / rc_lookahead=50 / rc=crf / mbtree=1 / crf=21.0 / qcomp=0.60 / qpmin=4 / qpmax=69 / qpstep=4 / ip_ratio=1.40 / aq=1:1.00
Tagged date : UTC 2013-02-20 13:50:29
Color primaries : BT.709-5, BT.1361, IEC 61966-2-4, SMPTE RP177
Transfer characteristics : BT.709-5, BT.1361
Matrix coefficients : BT.709-5, BT.1361, IEC 61966-2-4 709, SMPTE RP177

Audio
ID : 2
Format : AAC
Format/Info : Advanced Audio Codec
Format profile : LC
Codec ID : 40
Duration : 56mn 10s
Bit rate mode : Variable
Bit rate : 129 Kbps
Maximum bit rate : 184 Kbps
Channel(s) : 2 channels
Channel positions : Front: L R
Sampling rate : 48.0 KHz
Compression mode : Lossy
Delay relative to video : -3s 337ms
Stream size : 51.8 MiB (8%)
Encoded date : UTC 2013-02-20 13:50:25
Tagged date : UTC 2013-02-20 13:50:29

Screenshots

PBS - After Newtown: Guns in America (2013)

PBS - After Newtown: Guns in America (2013)

PBS - After Newtown: Guns in America (2013)

no mirrors please, Follow The Rules
Visit Polik88 Blog Here
no password