PBS - Into the Night: Portraits of Life and Death (2018)

Posted By: notbanned
720p (HD) / WEB-DL IMDb
PBS - Into the Night: Portraits of Life and Death (2018)

PBS - Into the Night: Portraits of Life and Death (2018)
WEB-DL | 1280x720 | .MKV/AVC @ 4500 Kbps | 1 h 56 min | 3.69 GiB
Audio: English AAC 93.4 kbps, 2 channels | Subs: None
Genre: Documentary

"Into the Night: Portraits of Life and Death," a documentary by Director Helen Whitney, explores the various ways we think about death – not death in general, but our own in particular. It is the great unanswered question. How do we live with death in our eye? What are the stories we tell ourselves as we go into the night – or into the light? "Into the Night" features nine fascinating men and women from all walks of life, all ages, believers and unbelievers, well-known and obscure. For them, death is no longer an abstraction. Whether through a dire prognosis, the imminence of their own death, the loss of a loved one, a sudden epiphany, or a temperament born to question, these are people who have truly awakened to their mortality.

General
Unique ID : 293800760616245198362989213630736601720 (0xDD07F7DF96F326DF2F03B39A932F9278)
Complete name : PBS.Specials.Into.the.Night.Portraits.of.Life.and.Death.720p.mkv
Format : Matroska
Format version : Version 4 / Version 2
File size : 3.69 GiB
Duration : 1 h 56 min
Overall bit rate : 4 550 kb/s

Video
ID : 1
Format : AVC
Format/Info : Advanced Video Codec
Format profile : High@L3.1
Format settings, CABAC : Yes
Format settings, ReFrames : 3 frames
Codec ID : V_MPEG4/ISO/AVC
Duration : 1 h 56 min
Bit rate mode : Constant
Bit rate : 4 500 kb/s
Width : 1 280 pixels
Height : 720 pixels
Display aspect ratio : 16:9
Frame rate mode : Constant
Frame rate : 29.970 (30000/1001) FPS
Color space : YUV
Chroma subsampling : 4:2:0
Bit depth : 8 bits
Scan type : Progressive
Bits/(Pixel*Frame) : 0.163
Stream size : 3.61 GiB (98%)
Default : Yes
Forced : No

Audio
ID : 2
Format : AAC
Format/Info : Advanced Audio Codec
Format profile : LC
Codec ID : A_AAC
Duration : 1 h 56 min
Bit rate : 93.4 kb/s
Channel(s) : 2 channels
Channel positions : Front: L R
Sampling rate : 48.0 kHz
Frame rate : 46.875 FPS (1024 spf)
Compression mode : Lossy
Delay relative to video : -33 ms
Stream size : 77.5 MiB (2%)
Language : English
Default : Yes
Forced : No


Screenshots:

PBS - Into the Night: Portraits of Life and Death (2018)

PBS - Into the Night: Portraits of Life and Death (2018)

PBS - Into the Night: Portraits of Life and Death (2018)

PBS - Into the Night: Portraits of Life and Death (2018)