Tags
Language
Tags

PBS - The Mystery of Matter: Search for the Elements (2015)

Posted By: Tutorial
1080p (FullHD) / HDTV
PBS - The Mystery of Matter: Search for the Elements (2015)

PBS - The Mystery of Matter: Search for the Elements (2015)
HDTV | 1920 x 1080 | .MP4/AVC @ 3555 Kbps | 3x~56mn | 3.91 GB
Audio: English AAC 130 Kbps, 2 channels | Subs: English
Genre: Documentary, History, Science

The Mystery of Matter: Search for the Elements is an exciting series about one of the great adventures in the history of science: the long and continuing quest to understand what the world is made of. Three episodes tell the story of seven of history’s most important scientists as they seek to identify, understand and organize the basic building blocks of matter. The Mystery of Matter: Search for the Elements shows us not only what these scientific explorers discovered but also how, using actors to reveal the creative process through the scientists’ own words and conveying their landmark discoveries through re-enactments shot with replicas of their original lab equipment. Knitting these strands together is host Michael Emerson, a two-time Emmy Award-winning actor. Meet Joseph Priestley and Antoine Lavoisier, whose discovery of oxygen led to the modern science of chemistry, and Humphry Davy, who made electricity a powerful new tool in the search for elements. Watch Dmitri Mendeleev invent the Periodic Table, and see Marie Curie’s groundbreaking research on radioactivity crack open a window into the atom. Learn how Harry Moseley’s investigation of atomic number redefined the Periodic Table, and how Glenn Seaborg’s discovery of plutonium opened up a whole new realm of elements still being explored today.

Part 1: Out of Thin Air
One of science’s great odd couples — British minister Joseph Priestley and French tax administrator Antoine Lavoisier — together discover a fantastic new gas called oxygen, overturning the reigning theory of chemistry and triggering a worldwide search for new elements. Soon caught up in the hunt is science’s first great showman, a precocious British chemist named Humphry Davy, who dazzles London audiences with his lectures, introduces them to laughing gas and turns the battery into a powerful tool in the search for new elements.

Part 2: Unruly Elements
Over a single weekend in 1869, a young Russian chemistry professor named Dmitri Mendeleev invents the Periodic Table, bringing order to the growing gaggle of elements. But this sense of order is shattered when a Polish graduate student named Marie Sklodowska Curie discovers radioactivity, revealing that elements can change identities — and that atoms must have undiscovered parts inside them.

Part 3: Into the Atom
Caught up in the race to discover the atom’s internal parts — and learn how they fit together — a young British physicist, Harry Moseley, uses newly discovered X-rays to put the Periodic Table in a whole new light. And a young American chemist named Glenn Seaborg creates a new element — plutonium — that changes the world forever, unleashing a force of unimaginable destructive power: the atomic bomb.

General
Complete name : PBS.The.Mystery.of.Matter.Search.for.the.Elements.1of3.Out.of.Thin.Air.mp4
Format : MPEG-4
Format profile : Base Media
Codec ID : isom (isom)
File size : 1.46 GiB
Duration : 56 min 41 s
Overall bit rate mode : Variable
Overall bit rate : 3 689 kb/s
Encoded date : UTC 2015-08-21 13:06:45
Tagged date : UTC 2015-08-21 13:06:45

Video
ID : 1
Format : AVC
Format/Info : Advanced Video Codec
Format profile : High@L4.1
Format settings, CABAC : Yes
Format settings, ReFrames : 4 frames
Codec ID : avc1
Codec ID/Info : Advanced Video Coding
Duration : 56 min 40 s
Bit rate : 3 555 kb/s
Maximum bit rate : 16.0 Mb/s
Width : 1 920 pixels
Height : 1 080 pixels
Display aspect ratio : 16:9
Frame rate mode : Constant
Frame rate : 29.970 (30000/1001) FPS
Color space : YUV
Chroma subsampling : 4:2:0
Bit depth : 8 bits
Scan type : Progressive
Bits/(Pixel*Frame) : 0.057
Stream size : 1.41 GiB (96%)
Writing library : x264 core 148 r2579 73ae2d1
Encoding settings : cabac=1 / ref=4 / deblock=1:-1:-1 / analyse=0x3:0x133 / me=umh / subme=10 / psy=1 / psy_rd=1.00:0.00 / mixed_ref=1 / me_range=24 / chroma_me=1 / trellis=2 / 8x8dct=1 / cqm=0 / deadzone=21,11 / fast_pskip=1 / chroma_qp_offset=-2 / threads=9 / lookahead_threads=1 / sliced_threads=0 / nr=0 / decimate=1 / interlaced=0 / bluray_compat=0 / constrained_intra=0 / bframes=9 / b_pyramid=2 / b_adapt=2 / b_bias=0 / direct=3 / weightb=1 / open_gop=0 / weightp=2 / keyint=360 / keyint_min=29 / scenecut=40 / intra_refresh=0 / rc_lookahead=60 / rc=crf / mbtree=1 / crf=21.0 / qcomp=0.60 / qpmin=0 / qpmax=69 / qpstep=4 / vbv_maxrate=62500 / vbv_bufsize=78125 / crf_max=0.0 / nal_hrd=none / filler=0 / ip_ratio=1.40 / aq=1:1.00
Encoded date : UTC 2015-08-21 13:03:02
Tagged date : UTC 2015-08-21 13:07:38

Audio
ID : 2
Format : AAC
Format/Info : Advanced Audio Codec
Format profile : LC
Codec ID : 40
Duration : 56 min 41 s
Bit rate mode : Variable
Bit rate : 130 kb/s
Maximum bit rate : 193 kb/s
Channel(s) : 2 channels
Channel positions : Front: L R
Sampling rate : 48.0 kHz
Frame rate : 46.875 FPS (1024 spf)
Compression mode : Lossy
Stream size : 52.5 MiB (4%)
Language : English
Encoded date : UTC 2015-08-21 12:44:26
Tagged date : UTC 2015-08-21 13:07:38

Text
ID : 3
Format : Timed Text
Codec ID : tx3g
Duration : 56 min 38 s
Bit rate mode : Variable
Bit rate : 143 b/s
Stream size : 59.2 KiB (0%)
Language : English
Forced : No
Encoded date : UTC 2015-08-21 13:07:38
Tagged date : UTC 2015-08-21 13:07:38
Screenshots

PBS - The Mystery of Matter: Search for the Elements (2015)

PBS - The Mystery of Matter: Search for the Elements (2015)

PBS - The Mystery of Matter: Search for the Elements (2015)

PBS - The Mystery of Matter: Search for the Elements (2015)

Welcome to my blog - daily update!

PBS - The Mystery of Matter: Search for the Elements (2015)