PBS Frontline - The Education of Michelle Rhee (2013)

Posted By: Polik88
PBS Frontline - The Education of Michelle Rhee (2013)

PBS Frontline - The Education of Michelle Rhee (2013)
English | MP4 | 848x480 | AVC 1197 Kbps 29.970 fps | AAC 129 Kbps 48.0 khz | 55mn 38s | 529 MB
Genre: Documentary

Michelle Rhee, the former chancellor of the Washington, D.C., public schools, is one of the most admired and reviled school reformers in America. FRONTLINE was granted unprecedented access to Rhee during her tumultuous three-year tenure as she attempted to fix a broken school system. As Rhee returns to the national stage, FRONTLINE examines her legacy in Washington, D.C., including her battles with the teachers' union and her handling of a cheating scandal in the District.
General
Complete name : PBS.Frontline.2013.The.Education.of.Michelle.Rhee.mp4
Format : MPEG-4
Format profile : Base Media
Codec ID : isom
File size : 529 MiB
Duration : 55mn 38s
Overall bit rate mode : Variable
Overall bit rate : 1 330 Kbps
Encoded date : UTC 2013-01-20 12:33:50
Tagged date : UTC 2013-01-20 12:33:50

Video
ID : 1
Format : AVC
Format/Info : Advanced Video Codec
Format profile : High@L3.1
Format settings, CABAC : Yes
Format settings, ReFrames : 6 frames
Codec ID : avc1
Codec ID/Info : Advanced Video Coding
Duration : 55mn 38s
Bit rate : 1 197 Kbps
Maximum bit rate : 5 279 Kbps
Width : 848 pixels
Height : 480 pixels
Display aspect ratio : 16:9
Frame rate mode : Constant
Frame rate : 29.970 fps
Color space : YUV
Chroma subsampling : 4:2:0
Bit depth : 8 bits
Scan type : Progressive
Bits/(Pixel*Frame) : 0.098
Stream size : 476 MiB (90%)
Writing library : x264 core 120
Encoding settings : cabac=1 / ref=6 / deblock=1:0:0 / analyse=0x3:0x113 / me=umh / subme=10 / psy=1 / psy_rd=2.00:1.00 / mixed_ref=1 / me_range=24 / chroma_me=1 / trellis=2 / 8x8dct=1 / cqm=0 / deadzone=21,11 / fast_pskip=1 / chroma_qp_offset=-4 / threads=3 / sliced_threads=0 / nr=0 / decimate=1 / interlaced=0 / bluray_compat=0 / constrained_intra=0 / bframes=9 / b_pyramid=2 / b_adapt=2 / b_bias=0 / direct=1 / weightb=1 / open_gop=0 / weightp=2 / keyint=300 / keyint_min=30 / scenecut=40 / intra_refresh=0 / rc_lookahead=50 / rc=crf / mbtree=1 / crf=21.0 / qcomp=0.60 / qpmin=3 / qpmax=69 / qpstep=4 / ip_ratio=1.40 / aq=1:1.00
Tagged date : UTC 2013-01-20 12:34:49
Color primaries : BT.709-5, BT.1361, IEC 61966-2-4, SMPTE RP177
Transfer characteristics : BT.709-5, BT.1361
Matrix coefficients : BT.709-5, BT.1361, IEC 61966-2-4 709, SMPTE RP177

Audio
ID : 2
Format : AAC
Format/Info : Advanced Audio Codec
Format profile : LC
Codec ID : 40
Duration : 55mn 38s
Bit rate mode : Variable
Bit rate : 129 Kbps
Maximum bit rate : 168 Kbps
Channel(s) : 2 channels
Channel positions : Front: L R
Sampling rate : 48.0 KHz
Compression mode : Lossy
Delay relative to video : -3s 337ms
Stream size : 51.3 MiB (10%)
Encoded date : UTC 2013-01-20 12:34:47
Tagged date : UTC 2013-01-20 12:34:49

Screenshots

PBS Frontline - The Education of Michelle Rhee (2013)

PBS Frontline - The Education of Michelle Rhee (2013)

PBS Frontline - The Education of Michelle Rhee (2013)

no mirrors please, Follow The Rules
Visit Polik88 Blog Here
no password