Pittsburgh (1942)

Posted By: Tavaz
1080p (FullHD) / BDRip IMDb
Pittsburgh (1942)

Pittsburgh (1942)
BDRip | MKV | 1920x1080 | English | H264 @ 9781 kbps | AC-3 @ 512 kbps | 1 h 31 min | 6.70 GiB
Genre: Drama

Charles 'Pittsburgh' Markham rides roughshod over his friends, his lovers, and his ideals in his trek toward financial success in the Pittsburgh steel industry, only to find himself deserted and lonely at the top. When his crash comes, he finds that fate has dealt him a second chance.

Pittsburgh.1942.1080p.BluRay.srt (114.9 KB)
Pittsburgh.1942.1080p.BluRay.REMUX.AVC.FLAC.2.0-EPSiLON.mkv (6.7 GB)



General
Complete name : ./Pittsburgh.1942.1080p.BluRay.REMUX.AVC.FLAC.2.0-EPSiLON.mkv
Format : Matroska
Format version : Version 1
File size : 6.70 GiB
Duration : 1 h 31 min
Overall bit rate : 10.5 Mb/s
Encoded date : UTC 2019-09-10 23:40:09
Writing library : WonderShare Matroska Muxer

Video
ID : 1
Format : AVC
Format/Info : Advanced Video Codec
Format profile : Main@L4.1
Format settings : CABAC / 2 Ref Frames
Format settings, CABAC : Yes
Format settings, RefFrames : 2 frames
Codec ID : V_MPEG4/ISO/AVC
Duration : 1 h 31 min
Bit rate : 9 782 kb/s
Width : 1 920 pixels
Height : 1 080 pixels
Display aspect ratio : 16:9
Frame rate mode : Constant
Frame rate : 23.976 (24000/1001) FPS
Color space : YUV
Chroma subsampling : 4:2:0
Bit depth : 8 bits
Scan type : Progressive
Bits/(Pixel*Frame) : 0.197
Stream size : 6.24 GiB (93%)
Default : Yes
Forced : No

Audio
ID : 2
Format : AC-3
Format/Info : Audio Coding 3
Format settings, Endianness : Big
Codec ID : A_AC3
Duration : 1 h 31 min
Bit rate mode : Constant
Bit rate : 512 kb/s
Channel(s) : 2 channels
Channel positions : Front: L R
Sampling rate : 48.0 kHz
Frame rate : 31.250 FPS (1536 SPF)
Bit depth : 16 bits
Compression mode : Lossy
Stream size : 334 MiB (5%)
Service kind : Complete Main
Default : Yes
Forced : No





Pittsburgh (1942)


Pittsburgh (1942)


Pittsburgh (1942)


Pittsburgh (1942)


Pittsburgh (1942)