Tags
Language
Tags

Pete's Dragon (2016)

Posted By: Tavaz
1080p (FullHD) / BDRip IMDb
Pete's Dragon (2016)

Pete's Dragon (2016)
BDRip | MKV | 1920x800 | English | H265 @ 1933 kbps | AAC @ 271 kbps | 1 h 42 min | 1.58 GiB
Subtitles: English
Genre: Adventure, Fantasy, Family

For years, old wood carver Mr. Meacham has delighted local children with his tales of the fierce dragon that resides deep in the woods of the Pacific Northwest. To his daughter, Grace, who works as a forest ranger, these stories are little more than tall tales… until she meets Pete, a mysterious 10-year-old with no family and no home who claims to live in the woods with a giant, green dragon named Elliott. And from Pete's descriptions, Elliott seems remarkably similar to the dragon from Mr. Meacham's stories. With the help of Natalie, an 11-year-old girl whose father Jack owns the local lumber mill, Grace sets out to determine where Pete came from, where he belongs, and the truth about this dragon.

6544ad1c6d1f1f6b818ae4d74518facf.mkv (1.6 GB)



General
Complete name : ./6544ad1c6d1f1f6b818ae4d74518facf.mkv
Format : Matroska
Format version : Version 4 / Version 2
File size : 1.58 GiB
Duration : 1 h 42 min
Overall bit rate : 2 208 kb/s
Encoded date : UTC 2016-11-17 06:21:22
Writing application : mkvmerge v9.5.0 ('Quiet Fire') 64bit
Writing library : libebml v1.3.4 + libmatroska v1.4.5

Video
ID : 1
Format : HEVC
Format/Info : High Efficiency Video Coding
Format profile : Main 10@L4@Main
Codec ID : V_MPEGH/ISO/HEVC
Duration : 1 h 42 min
Bit rate : 1 934 kb/s
Width : 1 920 pixels
Height : 800 pixels
Display aspect ratio : 2.40:1
Frame rate mode : Constant
Frame rate : 23.976 (24000/1001) FPS
Color space : YUV
Chroma subsampling : 4:2:0
Bit depth : 10 bits
Bits/(Pixel*Frame) : 0.053
Stream size : 1.39 GiB (88%)
Default : Yes
Forced : No
Color range : Limited
Color primaries : BT.709
Transfer characteristics : BT.709
Matrix coefficients : BT.709

Audio
ID : 2
Format : AAC
Format/Info : Advanced Audio Codec
Format profile : HE-AAC / LC
Format settings : Explicit
Codec ID : A_AAC-2
Duration : 1 h 42 min
Bit rate : 272 kb/s
Channel(s) : 7 channels
Channel(s)_Original : 8 channels
Channel positions : Front: L C R, Side: L R, Back: L R, LFE
Sampling rate : 48.0 kHz / 24.0 kHz
Frame rate : 23.438 FPS (1024 SPF)
Compression mode : Lossy
Delay relative to video : 31 ms
Stream size : 200 MiB (12%)
Language : English
Default : Yes
Forced : No

Text #1
ID : 3
Format : UTF-8
Codec ID : S_TEXT/UTF8
Codec ID/Info : UTF-8 Plain Text
Duration : 1 h 39 min
Bit rate : 37 b/s
Count of elements : 1031
Stream size : 27.2 KiB (0%)
Title : ENG
Language : English
Default : Yes
Forced : No

Text #2
ID : 4
Format : UTF-8
Codec ID : S_TEXT/UTF8
Codec ID/Info : UTF-8 Plain Text
Duration : 1 h 41 min
Bit rate : 42 b/s
Count of elements : 1232
Stream size : 31.5 KiB (0%)
Title : ENG SDH
Language : English
Default : No
Forced : No

Menu
00:00:00.000 : :Chapter 1
00:06:04.000 : :Chapter 2
00:09:46.800 : :Chapter 3
00:15:20.200 : :Chapter 4
00:21:28.600 : :Chapter 5
00:30:23.600 : :Chapter 6
00:36:58.000 : :Chapter 7
00:44:03.200 : :Chapter 8
00:52:28.200 : :Chapter 9
00:56:42.600 : :Chapter 10
01:03:14.000 : :Chapter 11
01:10:07.200 : :Chapter 12
01:17:17.600 : :Chapter 13
01:26:46.200 : :Chapter 14
01:32:26.800 : :Chapter 15
01:35:01.600 : :Chapter 16





Pete's Dragon (2016)


Pete's Dragon (2016)


Pete's Dragon (2016)


Pete's Dragon (2016)


Pete's Dragon (2016)