PBS - Pioneers of Television: Season 3 (2013)

Posted By: vivid23
PBS - Pioneers of Television: Season 3 (2013)

PBS - Pioneers of Television: Season 3 (2013)
PDTV | 960x540 | MP4/x264 @ 1199 Kbps | 4x55mn | Audio: English AAC 128 kbps, 2 channels | Subs: None | 4x531 MB
Genre: Documentary

More than 100 stars from TV's formative years bring their stories to life in season three of the Emmy-nominated documentary series PIONEERS OF TELEVISION. Narrated by Ryan Seacrest, each episode melds compelling interviews with irresistible archival clips to offer a fresh take on TV's breakthrough celebrities.

More info

Part 1: Funny Ladies
This episode offers surprising new insights about television's most-beloved variety star Carol Burnett. Funny Ladies also looks at the backstory behind Lucille Ball's breakthrough, I Love Lucy and the sitcom stars who followed, including Mary Tyler Moore, Betty White and Marla Gibbs. Featured television standups include Joan Rivers and the late Phyllis Diller-whose final interview was for this episode. The episode also includes interviews with contemporary actresses Tina Fey and Margaret Cho.


Part 2: Primetime Soaps
Dallas and Dynasty kicked off the nighttime soap frenzy in the late 1970s, a phenomenon that continued through the last season of Knots Landing in 1993. Interviewees in this episode include Larry Hagman, Joan Collins, Linda Evans, Diahann Carroll, Linda Gray, Patrick Duffy, Michele Lee, Joan Van Ark, and Donna Mills.


Part 3: Superheroes
Superheroes crosses many eras: Superman in the 1950s, Batman in the '60s, Wonder Woman and The Incredible Hulk in the '70s, and The Greatest American Hero in the '80s. The episode features in-depth interviews with Adam West, Burt Ward, Julie Newmar, Lynda Carter, Lou Ferrigno, William Katt, and others.


Part 4: Miniseries
Miniseries still rank among the top-rated programs in television history. Roots was the biggest – interviewees about that groundbreaking series include LeVar Burton, Louis Gossett Jr., Leslie Uggams, Ben Vereen, John Amos, Georg Stanford Brown, and Ed Asner.

This episode also considers the very first miniseries, Rich Man, Poor Man as stars Peter Strauss and Susan Blakely offer fresh insights. All of the key stars from the landmark miniseries The Thorn Birds appear.

Video
ID : 1
Format : AVC
Format/Info : Advanced Video Codec
Format profile : High@L3.1
Format settings, CABAC : Yes
Format settings, ReFrames : 6 frames
Codec ID : avc1
Codec ID/Info : Advanced Video Coding
Duration : 55mn 39s
Bit rate mode : Variable
Bit rate : 1 199 Kbps
Maximum bit rate : 4 263 Kbps
Width : 960 pixels
Height : 540 pixels
Display aspect ratio : 16:9
Frame rate mode : Variable
Frame rate : 23.976 fps
Minimum frame rate : 17.120 fps
Maximum frame rate : 60.040 fps
Color space : YUV
Chroma subsampling : 4:2:0
Bit depth : 8 bits
Scan type : Progressive
Bits/(Pixel*Frame) : 0.096
Stream size : 477 MiB (90%)
Writing library : x264 core 120
Encoding settings : cabac=1 / ref=6 / deblock=1:0:0 / analyse=0x3:0x113 / me=umh / subme=10 / psy=1 / psy_rd=2.00:1.00 / mixed_ref=1 / me_range=24 / chroma_me=1 / trellis=2 / 8x8dct=1 / cqm=0 / deadzone=21,11 / fast_pskip=1 / chroma_qp_offset=-4 / threads=3 / sliced_threads=0 / nr=0 / decimate=1 / interlaced=0 / bluray_compat=0 / constrained_intra=0 / bframes=9 / b_pyramid=2 / b_adapt=2 / b_bias=0 / direct=1 / weightb=1 / open_gop=0 / weightp=2 / keyint=240 / keyint_min=24 / scenecut=40 / intra_refresh=0 / rc_lookahead=50 / rc=crf / mbtree=1 / crf=21.0 / qcomp=0.60 / qpmin=3 / qpmax=69 / qpstep=4 / ip_ratio=1.40 / aq=1:1.00
Tagged date : UTC 2013-02-12 22:34:25
Color primaries : BT.709-5, BT.1361, IEC 61966-2-4, SMPTE RP177
Transfer characteristics : BT.709-5, BT.1361
Matrix coefficients : BT.709-5, BT.1361, IEC 61966-2-4 709, SMPTE RP177

Audio
ID : 2
Format : AAC
Format/Info : Advanced Audio Codec
Format version : Version 4
Format profile : LC
Format settings, SBR : No
Codec ID : 40
Duration : 55mn 39s
Bit rate mode : Variable
Bit rate : 129 Kbps
Maximum bit rate : 172 Kbps
Channel(s) : 2 channels
Channel positions : Front: L R
Sampling rate : 48.0 KHz
Compression mode : Lossy
Stream size : 51.4 MiB (10%)
Encoded date : UTC 2013-02-12 22:34:23
Tagged date : UTC 2013-02-12 22:34:25


PBS - Pioneers of Television: Season 3 (2013)

PBS - Pioneers of Television: Season 3 (2013)


Feel free to contact me when links are dead