Pirates des Caraïbes : La Vengeance de Salazar (2017)

Posted By: Tavaz
1080p (FullHD) / BDRip IMDb
Pirates des Caraïbes : La Vengeance de Salazar (2017)

Pirates des Caraïbes : La Vengeance de Salazar (2017)
BDRip | MKV | 1920x800 | French / English | H264 @ 10000 kbps | DTS @ 1509 kbps | 2 h 9 min | 11.8 GiB
Subtitles: French, English
Genre: Action, Adventure, Fantasy

Jack Sparrow et ses compagnons se lancent dans la quête du Trident de Poséidon, sur lequel le Capitaine Teague détient des informations précieuses. Cet artefact légendaire, qui donne tous les pouvoirs sur les océans, est leur seul moyen d'échapper aux fantômes du redoutable Capitaine Salazar, échappés du Triangle des Bermudes pour éliminer tous les pirates des océans.

Pirates.of.the.Caribbean.Dead.Men.Tell.No.Tales.2017.MULTI.TRUEFRENCH.1080p.BluRay.x264-GEO.mkv (11.8 GB)



General
Unique ID : 180941729326310243316082979826621061235 (0x88201C0637BD7049B3C8B6AE08959873)
Complete name : ./Pirates.of.the.Caribbean.Dead.Men.Tell.No.Tales.2017.MULTI.TRUEFRENCH.1080p.BluRay.x264-GEO.mkv
Format : Matroska
Format version : Version 4 / Version 2
File size : 11.8 GiB
Duration : 2 h 9 min
Overall bit rate : 13.0 Mb/s
Encoded date : UTC 2017-10-17 02:34:59 / UTC 2017-10-16T16:22:04Z
Writing application : mkvmerge v17.0.0 ('Be Ur Friend') 64-bit
Writing library : libebml v1.3.5 + libmatroska v1.4.8 / Lavf57.7.2

Video
ID : 1
Format : AVC
Format/Info : Advanced Video Codec
Format profile : Main@L4.1
Format settings : CABAC / 5 Ref Frames
Format settings, CABAC : Yes
Format settings, RefFrames : 5 frames
Codec ID : V_MPEG4/ISO/AVC
Duration : 2 h 9 min
Bit rate : 10 000 kb/s
Width : 1 920 pixels
Height : 800 pixels
Display aspect ratio : 2.40:1
Frame rate mode : Constant
Frame rate : 23.976 (24000/1001) FPS
Color space : YUV
Chroma subsampling : 4:2:0
Bit depth : 8 bits
Scan type : Progressive
Bits/(Pixel*Frame) : 0.272
Stream size : 8.80 GiB (75%)
Writing library : x264 core 148 r2708 86b7198
Encoding settings : cabac=1 / ref=5 / deblock=1:-1:-1 / analyse=0x1:0x111 / me=umh / subme=8 / psy=1 / psy_rd=1.00:0.15 / mixed_ref=1 / me_range=16 / chroma_me=1 / trellis=1 / 8x8dct=0 / cqm=0 / deadzone=21,11 / fast_pskip=1 / chroma_qp_offset=-3 / threads=12 / lookahead_threads=2 / sliced_threads=0 / nr=0 / decimate=1 / interlaced=0 / bluray_compat=0 / constrained_intra=0 / bframes=3 / b_pyramid=2 / b_adapt=2 / b_bias=0 / direct=3 / weightb=1 / open_gop=0 / weightp=2 / keyint=240 / keyint_min=24 / scenecut=40 / intra_refresh=0 / rc_lookahead=50 / rc=2pass / mbtree=1 / bitrate=10000 / ratetol=1.0 / qcomp=0.60 / qpmin=0 / qpmax=69 / qpstep=4 / cplxblur=20.0 / qblur=0.5 / vbv_maxrate=50000 / vbv_bufsize=62500 / nal_hrd=none / filler=0 / ip_ratio=1.40 / aq=1:1.00
Default : Yes
Forced : No
Color range : Limited
Color primaries : BT.709
Transfer characteristics : BT.709
Matrix coefficients : BT.709
Statistics Tags Issue : mkvmerge v17.0.0 ('Be Ur Friend') 64-bit 2017-10-17 02:34:59 / mkvmerge v17.0.0 ('Be Ur Friend') 64-bit 2017-10-17 02:34:59 / UTC 2017-10-16T16:22:04Z
FromStats_BitRate : 9999675
FromStats_Duration : 02:09:07.240000000
FromStats_FrameCount : 185747
FromStats_StreamSize : 9683736187

Audio #1
ID : 2
Format : DTS
Format/Info : Digital Theater Systems
Mode : 16
Format settings, Endianness : Big
Codec ID : A_DTS
Duration : 2 h 9 min
Bit rate mode : Constant
Bit rate : 1 509 kb/s
Channel(s) : 6 channels
Channel positions : Front: L C R, Side: L R, LFE
Sampling rate : 48.0 kHz
Frame rate : 93.750 FPS (512 SPF)
Bit depth : 24 bits
Compression mode : Lossy
Stream size : 1.36 GiB (12%)
Title : Français
Language : French
Default : Yes
Forced : No
Statistics Tags Issue : mkvmerge v17.0.0 ('Be Ur Friend') 64-bit 2017-10-17 02:34:59 / mkvmerge v17.0.0 ('Be Ur Friend') 64-bit 2017-10-17 02:34:59 / UTC 2017-10-16T16:22:04Z
FromStats_BitRate : 1509000
FromStats_Duration : 02:09:07.232000000
FromStats_FrameCount : 726303
FromStats_StreamSize : 1461321636

Audio #2
ID : 3
Format : DTS
Format/Info : Digital Theater Systems
Mode : 16
Format settings, Endianness : Big
Codec ID : A_DTS
Duration : 2 h 9 min
Bit rate mode : Constant
Bit rate : 1 509 kb/s
Channel(s) : 6 channels
Channel positions : Front: L C R, Side: L R, LFE
Sampling rate : 48.0 kHz
Frame rate : 93.750 FPS (512 SPF)
Bit depth : 24 bits
Compression mode : Lossy
Stream size : 1.36 GiB (12%)
Title : English
Language : English
Default : No
Forced : No
Statistics Tags Issue : mkvmerge v17.0.0 ('Be Ur Friend') 64-bit 2017-10-17 02:34:59 / mkvmerge v17.0.0 ('Be Ur Friend') 64-bit 2017-10-17 02:34:59 / UTC 2017-10-16T16:22:04Z
FromStats_BitRate : 1509000
FromStats_Duration : 02:09:07.232000000
FromStats_FrameCount : 726303
FromStats_StreamSize : 1461321636

Text #1
ID : 4
Format : PGS
Muxing mode : zlib
Codec ID : S_HDMV/PGS
Codec ID/Info : Picture based subtitle format used on BDs/HD-DVDs
Title : Forced
Language : French
Default : Yes
Forced : Yes
Statistics Tags Issue : mkvmerge v17.0.0 ('Be Ur Friend') 64-bit 2017-10-17 02:34:59 / mkvmerge v17.0.0 ('Be Ur Friend') 64-bit 2017-10-17 02:34:59 / UTC 2017-10-16T16:22:04Z
FromStats_BitRate : 675
FromStats_Duration : 00:15:59.125000000
FromStats_FrameCount : 10
FromStats_StreamSize : 80929

Text #2
ID : 5
Format : PGS
Muxing mode : zlib
Codec ID : S_HDMV/PGS
Codec ID/Info : Picture based subtitle format used on BDs/HD-DVDs
Language : French
Default : No
Forced : No
Statistics Tags Issue : mkvmerge v17.0.0 ('Be Ur Friend') 64-bit 2017-10-17 02:34:59 / mkvmerge v17.0.0 ('Be Ur Friend') 64-bit 2017-10-17 02:34:59 / UTC 2017-10-16T16:22:04Z
FromStats_BitRate : 23982
FromStats_Duration : 01:59:13.271000000
FromStats_FrameCount : 2549
FromStats_StreamSize : 21444231

Text #3
ID : 6
Format : PGS
Muxing mode : zlib
Codec ID : S_HDMV/PGS
Codec ID/Info : Picture based subtitle format used on BDs/HD-DVDs
Language : English
Default : No
Forced : No
Statistics Tags Issue : mkvmerge v17.0.0 ('Be Ur Friend') 64-bit 2017-10-17 02:34:59 / mkvmerge v17.0.0 ('Be Ur Friend') 64-bit 2017-10-17 02:34:59 / UTC 2017-10-16T16:22:04Z
FromStats_BitRate : 33061
FromStats_Duration : 02:07:54.167000000
FromStats_FrameCount : 3539
FromStats_StreamSize : 31714944

Menu
00:00:00.000 : :Chapter 1
00:05:49.516 : :Chapter 2
00:08:34.222 : :Chapter 3
00:13:40.820 : :Chapter 4
00:16:29.155 : :Chapter 5
00:22:33.853 : :Chapter 6
00:25:19.268 : :Chapter 7
00:28:06.101 : :Chapter 8
00:31:41.775 : :Chapter 9
00:33:44.814 : :Chapter 10
00:37:02.053 : :Chapter 11
00:42:27.712 : :Chapter 12
00:49:09.071 : :Chapter 13
00:54:00.279 : :Chapter 14
00:57:19.394 : :Chapter 15
01:00:38.718 : :Chapter 16
01:08:29.939 : :Chapter 17
01:11:57.021 : :Chapter 18
01:16:50.940 : :Chapter 19
01:19:27.471 : :Chapter 20
01:25:04.808 : :Chapter 21
01:27:42.174 : :Chapter 22
01:31:43.790 : :Chapter 23
01:38:22.814 : :Chapter 24
01:42:36.776 : :Chapter 25
01:47:23.562 : :Chapter 26
01:52:58.689 : :Chapter 27
01:59:09.934 : :Chapter 28





Pirates des Caraïbes : La Vengeance de Salazar (2017)


Pirates des Caraïbes : La Vengeance de Salazar (2017)


Pirates des Caraïbes : La Vengeance de Salazar (2017)


Pirates des Caraïbes : La Vengeance de Salazar (2017)


Pirates des Caraïbes : La Vengeance de Salazar (2017)