Battle for the Planet of the Apes / Битва за планету обезьян (1973)

Posted By: RSU75
720p (HD) / BDRip IMDb
Battle for the Planet of the Apes / Битва за планету обезьян (1973)

Battle for the Planet of the Apes / Битва за планету обезьян (1973)
BDRip | MKV | AVC 1280x544, ~ 2.6 Mbps | 1hr 36mn | 2.37 GB
English \ Russian: AC3, 6 ch, 448 kbps
Subtitles: English
Genre: Action, Sci-Fi
IMDB Rating: 5.5/10 (25.201 votes)


Director: J. Lee Thompson
Writers: Pierre Boulle (characters), Paul Dehn (story)
Stars: Roddy McDowall, Claude Akins, Natalie Trundy


Sequel to "Planet of the Apes." Film 5 of the series of 5.

After conquering the oppressive humans in "Conquest for the Planet of the Apes", Caesar must now keep the peace among the humans and apes. Gorilla General Aldo views things differently, and tries to cause an ape civil war. In the meantime, other human survivors learn of the ape city, and decide they want to take back civilization for themselves, thus setting the stage of warring ape factions and humans.





General
Unique ID : 188326451808821208168680097030889323040 (0x8DAE5AF403F6F94682D31FCC8394BA20)
Complete name : l:\PlanetOfTheApes.Battle.73.7p.Ru\PlanetOfTheApes.Battle.73.7p.Ru.mkv
Format : Matroska
Format version : Version 4 / Version 2
File size : 2.37 GiB
Duration : 1 h 36 min
Overall bit rate : 3 514 kb/s
Movie name : Release RSU75
Encoded date : UTC 2017-11-19 06:52:28
Writing application : mkvmerge v6.6.0 ('The Edge Of The In Between') built on Dec 1 2013 17:55:00
Writing library : libebml v1.3.0 + libmatroska v1.4.1

Video
ID : 1
Format : AVC
Format/Info : Advanced Video Codec
Format profile : High@L3.1
Format settings : CABAC / 4 Ref Frames
Format settings, CABAC : Yes
Format settings, RefFrames : 4 frames
Codec ID : V_MPEG4/ISO/AVC
Duration : 1 h 36 min
Bit rate : 2 600 kb/s
Width : 1 280 pixels
Height : 544 pixels
Display aspect ratio : 2.35:1
Frame rate mode : Constant
Frame rate : 25.000 FPS
Color space : YUV
Chroma subsampling : 4:2:0
Bit depth : 8 bits
Scan type : Progressive
Bits/(Pixel*Frame) : 0.149
Stream size : 1.72 GiB (73%)
Writing library : x264 core 144 r2533 c8a773e
Encoding settings : cabac=1 / ref=4 / deblock=1:0:0 / analyse=0x3:0x113 / me=umh / subme=8 / psy=1 / psy_rd=1.00:0.00 / mixed_ref=1 / me_range=24 / chroma_me=1 / trellis=1 / 8x8dct=1 / cqm=0 / deadzone=21,11 / fast_pskip=1 / chroma_qp_offset=-2 / threads=3 / lookahead_threads=1 / sliced_threads=0 / nr=0 / decimate=1 / interlaced=0 / bluray_compat=0 / constrained_intra=0 / bframes=3 / b_pyramid=0 / b_adapt=2 / b_bias=0 / direct=3 / weightb=1 / open_gop=0 / weightp=2 / keyint=250 / keyint_min=25 / scenecut=40 / intra_refresh=0 / rc_lookahead=40 / rc=abr / mbtree=1 / bitrate=2600 / ratetol=1.0 / qcomp=0.60 / qpmin=10 / qpmax=51 / qpstep=4 / ip_ratio=1.41 / aq=1:1.00
Language : English
Default : Yes
Forced : No

Audio #1
ID : 2
Format : AC-3
Format/Info : Audio Coding 3
Format settings, Endianness : Big
Codec ID : A_AC3
Duration : 1 h 36 min
Bit rate mode : Constant
Bit rate : 448 kb/s
Channel(s) : 6 channels
Channel positions : Front: L C R, Side: L R, LFE
Sampling rate : 48.0 kHz
Frame rate : 31.250 FPS (1536 SPF)
Bit depth : 16 bits
Compression mode : Lossy
Delay relative to video : 154 ms
Stream size : 309 MiB (13%)
Language : English
Service kind : Complete Main
Default : Yes
Forced : No

Audio #2
ID : 3
Format : AC-3
Format/Info : Audio Coding 3
Format settings, Endianness : Big
Codec ID : A_AC3
Duration : 1 h 36 min
Bit rate mode : Constant
Bit rate : 448 kb/s
Channel(s) : 6 channels
Channel positions : Front: L C R, Side: L R, LFE
Sampling rate : 48.0 kHz
Frame rate : 31.250 FPS (1536 SPF)
Bit depth : 16 bits
Compression mode : Lossy
Delay relative to video : 154 ms
Stream size : 309 MiB (13%)
Language : Russian
Service kind : Complete Main
Default : No
Forced : No

Text
ID : 4
Format : PGS
Muxing mode : zlib
Codec ID : S_HDMV/PGS
Codec ID/Info : Picture based subtitle format used on BDs/HD-DVDs
Language : English
Default : Yes
Forced : No




Screenshots (click to enlarge to original size):

Battle for the Planet of the Apes / Битва за планету обезьян (1973)

Battle for the Planet of the Apes / Битва за планету обезьян (1973)

Battle for the Planet of the Apes / Битва за планету обезьян (1973)


Battle for the Planet of the Apes / Битва за планету обезьян (1973)




–––––––––––––––––––––––––––––––––––––––-
>>> Other "Sci-Fi" <<< OR >>> "Planet of the Apes" <<<
–––––––––––––––––––––––––––––––––––––––-
>>> Visit Blog RSU75 Here <<<
–––––––––––––––––––––––––––––––––––––––-