BBC - Plastic Surgery Capital Of The World (2018)

Posted By: notbanned
720p (HD) / WEB-DL
BBC - Plastic Surgery Capital Of The World (2018)

BBC - Plastic Surgery Capital Of The World (2018)
WEB-DL | 1280x720 | .MKV/AVC @ 2317 Kbps | 58 min 20 s | 1007 MiB
Audio: English AAC 93.4 kbps, 2 channels | Subs: English
Genre: Documentary

Annie Price travels to South Korea, the plastic surgery capital of the world, to discover why young women feel compelled to modify very normal parts of their faces.

General
Unique ID : 288107141198954142752523804463587752812 (0xD8BF6AC34F3C86231971E6B844697B6C)
Complete name : Plastic.Surgery.Capital.Of.The.World.720p.mkv
Format : Matroska
Format version : Version 4 / Version 2
File size : 1 007 MiB
Duration : 58 min 20 s
Overall bit rate mode : Variable
Overall bit rate : 2 413 kb/s

Video
ID : 2
Format : AVC
Format/Info : Advanced Video Codec
Format profile : High@L4.1
Format settings, CABAC : Yes
Format settings, ReFrames : 2 frames
Codec ID : V_MPEG4/ISO/AVC
Duration : 58 min 20 s
Bit rate mode : Variable
Bit rate : 2 317 kb/s
Maximum bit rate : 3 500 kb/s
Width : 1 280 pixels
Height : 720 pixels
Display aspect ratio : 16:9
Frame rate mode : Constant
Frame rate : 25.000 FPS
Color space : YUV
Chroma subsampling : 4:2:0
Bit depth : 8 bits
Scan type : Progressive
Bits/(Pixel*Frame) : 0.101
Stream size : 967 MiB (96%)
Language : English
Default : Yes
Forced : No

Audio
ID : 3
Format : AAC
Format/Info : Advanced Audio Codec
Format profile : LC
Codec ID : A_AAC
Duration : 58 min 19 s
Bit rate : 93.4 kb/s
Channel(s) : 2 channels
Channel positions : Front: L R
Sampling rate : 48.0 kHz
Frame rate : 46.875 FPS (1024 spf)
Compression mode : Lossy
Delay relative to video : -40 ms
Stream size : 39.0 MiB (4%)
Language : English
Default : Yes
Forced : No

Text
ID : 1
Format : UTF-8
Codec ID : S_TEXT/UTF8
Codec ID/Info : UTF-8 Plain Text
Duration : 57 min 41 s
Bit rate : 193 b/s
Count of elements : 889
Stream size : 81.7 KiB (0%)
Language : English
Default : Yes
Forced : No


Screenshots:

BBC - Plastic Surgery Capital Of The World (2018)

BBC - Plastic Surgery Capital Of The World (2018)

BBC - Plastic Surgery Capital Of The World (2018)

BBC - Plastic Surgery Capital Of The World (2018)