Subcategories

Pollock (2000)

Posted By: Without
Pollock (2000)

Pollock (2000)
WEBRip 1080p | MKV | 1920x1080 | AVC@9494 kb/s | English AC3@640 kb/s
Subs: English | 6 channels | 2 h 3 min | 8.74 GB
Genre: Biography, Drama

A film about the life and career of the American painter, Jackson Pollock.

IMDB - Won 1 Oscar. Another 2 wins & 9 nominations


General
Pollock.2000.1080p.AMZN.WEBRip.DDP5.1.x264-monkee\Pollock.2000.1080p.AMZN.WEB-DL.DD+5.1.H.264-monkee.mkv
Format : Matroska
Format version : Version 4 / Version 2
File size : 8.74 GiB
Duration : 2 h 3 min
Overall bit rate mode : Variable
Overall bit rate : 10.1 Mb/s
Encoded date : UTC 2017-07-22 17:30:42
Writing application : mkvmerge v13.0.0 ('The Juggler') 64bit
Writing library : libebml v1.3.4 + libmatroska v1.4.5

Video
ID : 1
Format : AVC
Format/Info : Advanced Video Codec
Format profile : High@L4
Format settings, CABAC : Yes
Format settings, ReFrames : 4 frames
Codec ID : V_MPEG4/ISO/AVC
Duration : 2 h 3 min
Bit rate mode : Variable
Bit rate : 9 494 kb/s
Maximum bit rate : 15.0 Mb/s
Width : 1 920 pixels
Height : 1 080 pixels
Display aspect ratio : 16:9
Frame rate mode : Constant
Frame rate : 23.976 (24000/1001) FPS
Color space : YUV
Chroma subsampling : 4:2:0
Bit depth : 8 bits
Scan type : Progressive
Bits/(Pixel*Frame) : 0.191
Stream size : 8.19 GiB (94%)
Default : Yes
Forced : No
Color range : Limited
Color primaries : BT.709
Transfer characteristics : BT.709
Matrix coefficients : BT.709

Audio
ID : 2
Format : E-AC-3
Format/Info : Enhanced Audio Coding 3
Format settings, Endianness : Big
Codec ID : A_EAC3
Duration : 2 h 3 min
Bit rate mode : Constant
Bit rate : 640 kb/s
Channel(s) : 6 channels
Channel positions : Front: L C R, Side: L R, LFE
Sampling rate : 48.0 kHz
Frame rate : 187.500 FPS (256 spf)
Compression mode : Lossy
Stream size : 565 MiB (6%)
Language : English
Default : Yes
Forced : No

Text
ID : 3
Format : UTF-8
Codec ID : S_TEXT/UTF8
Codec ID/Info : UTF-8 Plain Text
Duration : 1 h 58 min
Bit rate : 41 b/s
Count of elements : 1053
Stream size : 36.4 KiB (0%)
Language : English
Default : No
Forced : No


WEBRip 1080p Screenshots

Pollock (2000)

Pollock (2000)

Pollock (2000)

Pollock (2000)


Come Visit My Blog (•‿•)