The Last Warrior (2017)

Posted By: Tavaz
720p (HD) / WEBRip IMDb
The Last Warrior (2017)

The Last Warrior (2017)
WEB-DL | MKV | 1280x536 | Russian | H264 @ 4006 kbps | AC-3 @ 384 kbps | 1 h 53 min | 3.49 GiB
Genre: Action, Family, Fantasy

ivan is an ordinary guy who is transferred from modern Moscow to the fantasy world Belogorye. in this parallel universe where characters of russian fairy tales live, magic is an integral part of the daily life, and arguments are settled with the help of sword ght. Unexpectedly, ivan nds himself in the middle of the battle between the good and evil. He has to nd out why everyone thinks that he should play the main role in the occurring events…

3a1dab11ce15498b932431194a24d033.mkv (3.5 GB)
3a1dab11ce15498b932431194a24d033(1).mkv (3.5 GB)



General
Complete name : ./3a1dab11ce15498b932431194a24d033.mkv
Format : Matroska
Format version : Version 2
File size : 3.49 GiB
Duration : 1 h 53 min
Overall bit rate : 4 393 kb/s
Encoded date : UTC 2017-12-06 19:27:58
Writing application : mkvmerge v8.3.0 ('Over the Horizon') 64bit
Writing library : libebml v1.3.1 + libmatroska v1.4.2

Video
ID : 1
Format : AVC
Format/Info : Advanced Video Codec
Format profile : Main@L3.1
Format settings : 2 Ref Frames
Format settings, CABAC : No
Format settings, RefFrames : 2 frames
Codec ID : V_MPEG4/ISO/AVC
Duration : 1 h 53 min
Bit rate : 4 007 kb/s
Width : 1 280 pixels
Height : 536 pixels
Display aspect ratio : 2.40:1
Frame rate mode : Constant
Frame rate : 24.000 FPS
Color space : YUV
Chroma subsampling : 4:2:0
Bit depth : 8 bits
Scan type : Progressive
Bits/(Pixel*Frame) : 0.243
Stream size : 3.18 GiB (91%)
Language : English
Default : Yes
Forced : No
Color range : Limited
Color primaries : BT.709
Transfer characteristics : BT.709
Matrix coefficients : BT.709

Audio
ID : 2
Format : AC-3
Format/Info : Audio Coding 3
Format settings, Endianness : Big
Codec ID : A_AC3
Duration : 1 h 53 min
Bit rate mode : Constant
Bit rate : 384 kb/s
Channel(s) : 6 channels
Channel positions : Front: L C R, Side: L R, LFE
Sampling rate : 48.0 kHz
Frame rate : 31.250 FPS (1536 SPF)
Bit depth : 16 bits
Compression mode : Lossy
Stream size : 313 MiB (9%)
Language : Russian
Service kind : Complete Main
Default : Yes
Forced : No

Menu
00:00:00.000 : en:Глава 1
00:06:59.375 : en:Глава 2
00:14:35.333 : en:Глава 3
00:22:22.374 : en:Глава 4
00:28:29.957 : en:Глава 5
00:35:31.790 : en:Глава 6
00:41:42.040 : en:Глава 7
00:47:39.456 : en:Глава 8
00:54:12.081 : en:Глава 9
01:02:50.747 : en:Глава 10
01:11:07.455 : en:Глава 11
01:19:08.121 : en:Глава 12
01:28:40.537 : en:Глава 13
01:35:01.287 : en:Глава 14
01:44:42.912 : en:Глава 15





The Last Warrior (2017)


The Last Warrior (2017)


The Last Warrior (2017)


The Last Warrior (2017)


The Last Warrior (2017)