Tags
Language
Tags

Post Apocalyptic Commando Shark (2018)

Posted By: Tavaz
1080p (FullHD) / BDRip IMDb
Post Apocalyptic Commando Shark (2018)

Post Apocalyptic Commando Shark (2018)
BDRip | MKV | 1920x1080 | English | H264 @ 5760 kbps | AC-3 @ 448 kbps | 1 h 22 min | 3.57 GiB
Genre: Action, Comedy

In the post-apocalyptic future, the world is at war. The newly instated Soviet Russian Army has invaded the USA with the assistance of an evil German scientist who has created an army of super human soldiers, half-man and half-shark.

123d3635bb0790a23db9d6cc32200ca6.mkv (3.6 GB)



General
Complete name : ./123d3635bb0790a23db9d6cc32200ca6.mkv
Format : Matroska
Format version : Version 4 / Version 2
File size : 3.57 GiB
Duration : 1 h 22 min
Overall bit rate : 6 196 kb/s
Encoded date : UTC 2020-06-15 00:27:57 / UTC 2020-06-14T02:59:13Z
Writing application : mkvmerge v47.0.0 ('Black Flag') 64-bit
Writing library : libebml v1.3.10 + libmatroska v1.5.2 / Lavf57.7.2

Video
ID : 1
Format : AVC
Format/Info : Advanced Video Codec
Format profile : High@L4
Format settings : CABAC / 4 Ref Frames
Format settings, CABAC : Yes
Format settings, RefFrames : 4 frames
Codec ID : V_MPEG4/ISO/AVC
Duration : 1 h 22 min
Bit rate : 5 760 kb/s
Width : 1 920 pixels
Height : 1 080 pixels
Display aspect ratio : 16:9
Frame rate mode : Constant
Frame rate : 29.970 (30000/1001) FPS
Color space : YUV
Chroma subsampling : 4:2:0
Bit depth : 8 bits
Scan type : Progressive
Bits/(Pixel*Frame) : 0.093
Stream size : 3.24 GiB (91%)
Writing library : x264 core 155 r2901 7d0ff22
Encoding settings : cabac=1 / ref=4 / deblock=1:-3:-3 / analyse=0x3:0x133 / me=umh / subme=9 / psy=1 / psy_rd=1.10:0.25 / mixed_ref=1 / me_range=32 / chroma_me=1 / trellis=2 / 8x8dct=1 / cqm=0 / deadzone=6,6 / fast_pskip=1 / chroma_qp_offset=-4 / threads=34 / lookahead_threads=3 / sliced_threads=0 / nr=0 / decimate=1 / interlaced=0 / bluray_compat=0 / constrained_intra=0 / bframes=6 / b_pyramid=2 / b_adapt=2 / b_bias=0 / direct=3 / weightb=1 / open_gop=0 / weightp=2 / keyint=300 / keyint_min=30 / scenecut=40 / intra_refresh=0 / rc_lookahead=40 / rc=2pass / mbtree=1 / bitrate=5760 / ratetol=1.0 / qcomp=0.60 / qpmin=0 / qpmax=69 / qpstep=4 / cplxblur=20.0 / qblur=0.5 / vbv_maxrate=20000 / vbv_bufsize=25000 / nal_hrd=none / filler=0 / ip_ratio=1.40 / aq=1:1.00
Default : Yes
Forced : No
Color range : Limited
Color primaries : BT.709
Transfer characteristics : BT.709
Matrix coefficients : BT.709
Statistics Tags Issue : mkvmerge v47.0.0 ('Black Flag') 64-bit 2020-06-15 00:27:57 / mkvmerge v47.0.0 ('Black Flag') 64-bit 2020-06-15 00:27:57 / UTC 2020-06-14T02:59:13Z
FromStats_BitRate : 5746135
FromStats_Duration : 01:22:34.549000000
FromStats_FrameCount : 148488
FromStats_StreamSize : 3558688600

Audio
ID : 2
Format : AC-3
Format/Info : Audio Coding 3
Format settings, Endianness : Big
Codec ID : A_AC3
Duration : 1 h 22 min
Bit rate mode : Constant
Bit rate : 448 kb/s
Channel(s) : 6 channels
Channel positions : Front: L C R, Side: L R, LFE
Sampling rate : 48.0 kHz
Frame rate : 31.250 FPS (1536 SPF)
Bit depth : 16 bits
Compression mode : Lossy
Stream size : 265 MiB (7%)
Title : Surround
Language : English
Service kind : Complete Main
Default : Yes
Forced : No
Statistics Tags Issue : mkvmerge v47.0.0 ('Black Flag') 64-bit 2020-06-15 00:27:57 / mkvmerge v47.0.0 ('Black Flag') 64-bit 2020-06-15 00:27:57 / UTC 2020-06-14T02:59:13Z
FromStats_BitRate : 448000
FromStats_Duration : 01:22:34.560000000
FromStats_FrameCount : 154830
FromStats_StreamSize : 277455360





Post Apocalyptic Commando Shark (2018)


Post Apocalyptic Commando Shark (2018)


Post Apocalyptic Commando Shark (2018)


Post Apocalyptic Commando Shark (2018)


Post Apocalyptic Commando Shark (2018)