Tags
Language
Tags

Pulp Fiction (1994)

Posted By: Tavaz
1080p (FullHD) / WEBRip IMDb
Pulp Fiction (1994)

Pulp Fiction (1994)
BDRip | MKV | 1920x816 | English | H264 @ 10656 kbps | DTS @ 1509 kbps | 2 h 34 min | 13.1 GiB
Subtitles: English
Genre: Crime, Drama

The lives of two mob hit men, a boxer, a gangster's wife, and a pair of diner bandits intertwine in four tales of violence and redemption.



Pulp.Fiction.1994.1080p.BluRay.x264-CiNEFiLE.part1.rar (6.9 GB)
Pulp.Fiction.1994.1080p.BluRay.x264-CiNEFiLE.part2.rar (6.4 GB)



General
Complete name : ./503de8ee7e8e4e66b13ace2681f9c952.mkv
Format : Matroska
Format version : Version 1
File size : 13.1 GiB
Duration : 2 h 34 min
Overall bit rate : 12.1 Mb/s
Encoded date : UTC 2008-11-16 11:09:02
Writing application : mkvmerge v2.4.0 ('Fumbling Towards Ecstasy') built on Oct 11 2008 20:13:15
Writing library : libebml v0.7.7 + libmatroska v0.8.1

Video
ID : 1
Format : AVC
Format/Info : Advanced Video Codec
Format profile : High@L4.1
Format settings : CABAC / 5 Ref Frames
Format settings, CABAC : Yes
Format settings, RefFrames : 5 frames
Codec ID : V_MPEG4/ISO/AVC
Duration : 2 h 34 min
Bit rate : 10.7 Mb/s
Width : 1 920 pixels
Height : 816 pixels
Display aspect ratio : 2.35:1
Frame rate mode : Constant
Frame rate : 23.976 FPS
Color space : YUV
Chroma subsampling : 4:2:0
Bit depth : 8 bits
Scan type : Progressive
Bits/(Pixel*Frame) : 0.284
Stream size : 11.2 GiB (86%)
Writing library : x264 core 65 r1028 83baa7f
Encoding settings : cabac=1 / ref=5 / deblock=1:0:0 / analyse=0x3:0x113 / me=umh / subme=7 / psy_rd=1.0:0.0 / mixed_ref=1 / me_range=16 / chroma_me=1 / trellis=1 / 8x8dct=1 / cqm=0 / deadzone=21,11 / chroma_qp_offset=-2 / threads=6 / nr=0 / decimate=1 / mbaff=0 / bframes=3 / b_pyramid=1 / b_adapt=1 / b_bias=0 / direct=1 / wpredb=1 / keyint=250 / keyint_min=25 / scenecut=40(pre) / rc=2pass / bitrate=10656 / ratetol=1.0 / qcomp=0.60 / qpmin=10 / qpmax=51 / qpstep=4 / cplxblur=20.0 / qblur=0.5 / ip_ratio=1.40 / pb_ratio=1.30 / aq=1:1.00
Language : English
Default : Yes
Forced : No

Audio
ID : 2
Format : DTS
Format/Info : Digital Theater Systems
Mode : 16
Format settings, Endianness : Big
Codec ID : A_DTS
Duration : 2 h 34 min
Bit rate mode : Constant
Bit rate : 1 509 kb/s
Channel(s) : 6 channels
Channel positions : Front: L C R, Side: L R, LFE
Sampling rate : 48.0 kHz
Frame rate : 93.750 FPS (512 SPF)
Bit depth : 24 bits
Compression mode : Lossy
Stream size : 1.63 GiB (12%)
Language : English
Default : Yes
Forced : No

Text
ID : 3
Format : UTF-8
Codec ID : S_TEXT/UTF8
Codec ID/Info : UTF-8 Plain Text
Language : English
Default : Yes
Forced : No





Pulp Fiction (1994)


Pulp Fiction (1994)


Pulp Fiction (1994)


Pulp Fiction (1994)


Pulp Fiction (1994)