Puppet Master: Axis Termination (2017)

Posted By: Tavaz
1080p (FullHD) / BDRip IMDb
Puppet Master: Axis Termination (2017)

Puppet Master: Axis Termination (2017)
BDRip | MKV | 1920x1080 | English | H264 @ 10292 kbps | AC-3 @ 448 kbps | 1 h 14 min | 5.61 GiB
Genre: Fantasy, Horror, War

In PUPPET MASTER XI - AXIS TERMINATION, the final chapter of the AXIS Saga, we find our heroic band of lethal puppets-BLADE, PINHEAD, TUNNELER, JESTER, SIX SHOOTER, and LEECH WOMAN, joining forces with a secret team of Allied Operatives, all masters of psychic powers, as they face off together against a new bunch of evil Nazi adversaries and their collection of vicious Axis Puppets in a showdown that will decide the future of the free world.

8a680d8c48cb4b0e8cf54ce303d0b38f.mkv (5.6 GB)



General
Unique ID : 323697506962582220812095893027093355375 (0xF385DF45C3BCB3C0070A1F9DD1061B6F)
Complete name : ./8a680d8c48cb4b0e8cf54ce303d0b38f.mkv
Format : Matroska
Format version : Version 4 / Version 2
File size : 5.61 GiB
Duration : 1 h 14 min
Overall bit rate : 10.7 Mb/s
Encoded date : UTC 2018-05-16 01:24:44
Writing application : mkvmerge v23.0.0 ('The Bride Said No') 64-bit
Writing library : libebml v1.3.6 + libmatroska v1.4.9

Video
ID : 1
Format : AVC
Format/Info : Advanced Video Codec
Format profile : High@L4.1
Format settings : CABAC / 4 Ref Frames
Format settings, CABAC : Yes
Format settings, RefFrames : 4 frames
Codec ID : V_MPEG4/ISO/AVC
Duration : 1 h 14 min
Bit rate : 10.3 Mb/s
Width : 1 920 pixels
Height : 1 080 pixels
Display aspect ratio : 16:9
Frame rate mode : Constant
Frame rate : 23.976 (24000/1001) FPS
Color space : YUV
Chroma subsampling : 4:2:0
Bit depth : 8 bits
Scan type : Progressive
Bits/(Pixel*Frame) : 0.207
Stream size : 5.38 GiB (96%)
Writing library : x264 core 148 r2708 86b7198
Encoding settings : cabac=1 / ref=4 / deblock=1:-3:-3 / analyse=0x3:0x133 / me=umh / subme=10 / psy=1 / psy_rd=1.00:0.00 / mixed_ref=1 / me_range=32 / chroma_me=1 / trellis=2 / 8x8dct=1 / cqm=0 / deadzone=21,11 / fast_pskip=0 / chroma_qp_offset=-2 / threads=30 / lookahead_threads=7 / sliced_threads=0 / nr=0 / decimate=0 / interlaced=0 / bluray_compat=0 / constrained_intra=0 / bframes=16 / b_pyramid=2 / b_adapt=2 / b_bias=0 / direct=3 / weightb=1 / open_gop=0 / weightp=2 / keyint=240 / keyint_min=24 / scenecut=40 / intra_refresh=0 / rc_lookahead=60 / rc=crf / mbtree=0 / crf=18.0 / qcomp=0.60 / qpmin=0 / qpmax=69 / qpstep=4 / vbv_maxrate=62500 / vbv_bufsize=78125 / crf_max=0.0 / nal_hrd=none / filler=0 / ip_ratio=1.40 / pb_ratio=1.30 / aq=2:1.00
Default : Yes
Forced : No
Color range : Limited
Color primaries : BT.709
Transfer characteristics : BT.709
Matrix coefficients : BT.709

Audio
ID : 2
Format : AC-3
Format/Info : Audio Coding 3
Format settings, Endianness : Big
Codec ID : A_AC3
Duration : 1 h 14 min
Bit rate mode : Constant
Bit rate : 448 kb/s
Channel(s) : 6 channels
Channel positions : Front: L C R, Side: L R, LFE
Sampling rate : 48.0 kHz
Frame rate : 31.250 FPS (1536 SPF)
Bit depth : 16 bits
Compression mode : Lossy
Stream size : 240 MiB (4%)
Title : Surround
Language : English
Service kind : Complete Main
Default : Yes
Forced : No

Menu
00:00:00.000 : :Chapter 1
00:05:00.050 : :Chapter 2
00:10:00.600 : :Chapter 3
00:15:00.983 : :Chapter 4
00:20:01.200 : :Chapter 5
00:25:02.042 : :Chapter 6
00:30:02.342 : :Chapter 7
00:35:02.684 : :Chapter 8
00:40:02.901 : :Chapter 9
00:45:03.451 : :Chapter 10
00:50:03.959 : :Chapter 11
00:55:04.176 : :Chapter 12
01:00:04.351 : :Chapter 13
01:05:04.943 : :Chapter 14
01:10:05.118 : :Chapter 15





Puppet Master: Axis Termination (2017)


Puppet Master: Axis Termination (2017)


Puppet Master: Axis Termination (2017)


Puppet Master: Axis Termination (2017)


Puppet Master: Axis Termination (2017)