Tags
Language
Tags

Queen of Outer Space (1958)

Posted By: Tavaz
1080p (FullHD) / BDRip IMDb
Queen of Outer Space (1958)

Queen of Outer Space (1958)
BDRip | MKV | 1920x800 | English | H265 @ 2322 kbps | DTS @ 1509 kbps | 1 h 19 min | 2.17 GiB
Subtitles: English
Genre: Adventure, Science Fiction, Fantasy

A mission to Venus discovers the planet inhabited only by women led by their evil Queen Yllana. Yllana had all the men of Venus killed, now that's she met Earth men, she wants them dead, too.

8cfad04b56134b86a0ce069806f14c71.mkv (2.2 GB)



General
Unique ID : 87973203317219797424164764407340092419 (0x422F05CCDD3DEB12A6C4CDD51BE24C03)
Complete name : ./8cfad04b56134b86a0ce069806f14c71.mkv
Format : Matroska
Format version : Version 4 / Version 2
File size : 2.17 GiB
Duration : 1 h 19 min
Overall bit rate : 3 890 kb/s
Encoded date : UTC 2019-08-25 08:15:15
Writing application : mkvmerge v37.0.0 ('Leave It') 64-bit
Writing library : libebml v1.3.9 + libmatroska v1.5.2

Video
ID : 1
Format : HEVC
Format/Info : High Efficiency Video Coding
Format profile : Main 10@L4@Main
Codec ID : V_MPEGH/ISO/HEVC
Duration : 1 h 19 min
Bit rate : 2 323 kb/s
Width : 1 920 pixels
Height : 800 pixels
Display aspect ratio : 2.40:1
Frame rate mode : Constant
Frame rate : 23.976 (24000/1001) FPS
Color space : YUV
Chroma subsampling : 4:2:0
Bit depth : 10 bits
Bits/(Pixel*Frame) : 0.063
Stream size : 1.29 GiB (60%)
Writing library : x265 2.9:[Windows][GCC 8.2.0][64 bit] 10bit
Encoding settings : cpuid=1111039 / frame-threads=4 / numa-pools=16 / wpp / no-pmode / no-pme / no-psnr / no-ssim / log-level=2 / input-csp=1 / input-res=1920x800 / interlace=0 / total-frames=0 / level-idc=0 / high-tier=1 / uhd-bd=0 / ref=3 / no-allow-non-conformance / no-repeat-headers / annexb / no-aud / no-hrd / info / hash=0 / no-temporal-layers / open-gop / min-keyint=24 / keyint=240 / gop-lookahead=0 / bframes=4 / b-adapt=2 / b-pyramid / bframe-bias=0 / rc-lookahead=20 / lookahead-slices=5 / scenecut=40 / radl=0 / no-intra-refresh / ctu=64 / min-cu-size=8 / no-rect / no-amp / max-tu-size=32 / tu-inter-depth=1 / tu-intra-depth=1 / limit-tu=0 / rdoq-level=0 / dynamic-rd=0.00 / no-ssim-rd / signhide / no-tskip / nr-intra=0 / nr-inter=0 / no-constrained-intra / strong-intra-smoothing / max-merge=2 / limit-refs=3 / no-limit-modes / me=1 / subme=2 / merange=57 / temporal-mvp / weightp / no-weightb / no-analyze-src-pics / deblock=0:0 / sao / no-sao-non-deblock / rd=3 / no-early-skip / rskip / no-fast-intra / no-tskip-fast / no-cu-lossless / no-b-intra / no-splitrd-skip / rdpenalty=0 / psy-rd=2.00 / psy-rdoq=0.00 / no-rd-refine / no-lossless / cbqpoffs=0 / crqpoffs=0 / rc=crf / crf=23.0 / qcomp=0.60 / qpstep=4 / stats-write=0 / stats-read=0 / ipratio=1.40 / pbratio=1.30 / aq-mode=1 / aq-strength=1.00 / cutree / zone-count=0 / no-strict-cbr / qg-size=32 / no-rc-grain / qpmax=69 / qpmin=0 / no-const-vbv / sar=1 / overscan=0 / videoformat=5 / range=0 / colorprim=1 / transfer=1 / colormatrix=1 / chromaloc=0 / display-window=0 / max-cll=0,0 / min-luma=0 / max-luma=1023 / log2-max-poc-lsb=8 / vui-timing-info / vui-hrd-info / slices=1 / no-opt-qp-pps / no-opt-ref-list-length-pps / no-multi-pass-opt-rps / scenecut-bias=0.05 / no-opt-cu-delta-qp / no-aq-motion / no-hdr / no-hdr-opt / no-dhdr10-opt / no-idr-recovery-sei / analysis-reuse-level=5 / scale-factor=0 / refine-intra=0 / refine-inter=0 / refine-mv=0 / no-limit-sao / ctu-info=0 / no-lowpass-dct / refine-mv-type=0 / copy-pic=1 / max-ausize-factor=1.0 / no-dynamic-refine / no-single-sei
Default : Yes
Forced : No
Color range : Limited
Color primaries : BT.709
Transfer characteristics : BT.709
Matrix coefficients : BT.709

Audio
ID : 2
Format : DTS
Format/Info : Digital Theater Systems
Mode : 16
Format settings, Endianness : Big
Codec ID : A_DTS
Duration : 1 h 19 min
Bit rate mode : Constant
Bit rate : 1 509 kb/s
Channel(s) : 2 channels
Channel positions : Front: L R
Sampling rate : 48.0 kHz
Frame rate : 93.750 FPS (512 SPF)
Bit depth : 24 bits
Compression mode : Lossy
Stream size : 861 MiB (39%)
Title : Stereo
Language : English
Default : Yes
Forced : No

Text
ID : 3
Format : PGS
Muxing mode : zlib
Codec ID : S_HDMV/PGS
Codec ID/Info : Picture based subtitle format used on BDs/HD-DVDs
Duration : 1 h 18 min
Bit rate : 87.9 kb/s
Count of elements : 2134
Stream size : 49.1 MiB (2%)
Language : English
Default : No
Forced : No

Menu
00:00:00.000 : :Milk-run Mission
00:05:00.175 : :Blastoff
00:08:37.267 : :Beam's Target
00:11:47.749 : :Maximum Acceleration
00:14:42.632 : :Credits
00:16:31.991 : :This is Venus
00:21:41.509 : :Electronic Signals
00:23:35.581 : :Botchino!
00:27:49.459 : :Queen Yllana
00:31:33.517 : :Death Sentence
00:35:25.624 : :Enter Talleah
00:39:24.571 : :Royal Summons
00:41:52.844 : :Truth or Consequences
00:45:15.504 : :Behind the Mask
00:48:20.481 : :Evasive Maneuvers
00:51:57.406 : :Close Quarters in the Dark
00:55:46.552 : :Cave Creature
00:58:05.774 : :Cave Couplings
01:00:20.534 : :Staged Capture
01:03:17.961 : :Act of Rebellion
01:08:18.011 : :Back in Charge
01:10:14.752 : :Push the Button
01:15:08.838 : :Staying a While
01:18:57.608 : :Cast list





Queen of Outer Space (1958)


Queen of Outer Space (1958)


Queen of Outer Space (1958)


Queen of Outer Space (1958)


Queen of Outer Space (1958)