Radio Bikini (1988)

Posted By: vivid23
Radio Bikini (1988)

Radio Bikini (1988)
DVDrip | 640x480 | AVI/XviD @ 1580 Kbps | 56mn | Audio: English MP3 128 kbps, 2 channels | Subs: None | 689 MB
Genre: Documentary

Radio Bikini is a 1988 documentary film directed by Robert Stone. It was nominated for an Academy Award in 1988 for Best Documentary Feature. The film documents the nuclear tests performed around Bikini Atoll during Operation Crossroads in 1946, and their effects on the indigenous population and American servicemen involved in the testing.

More info

Video
ID : 0
Format : MPEG-4 Visual
Format profile : Simple@L3
Format settings, BVOP : No
Format settings, QPel : No
Format settings, GMC : No warppoints
Format settings, Matrix : Default (H.263)
Codec ID : XVID
Codec ID/Hint : XviD
Duration : 56mn 1s
Bit rate : 1 580 Kbps
Width : 640 pixels
Height : 480 pixels
Display aspect ratio : 4:3
Frame rate : 23.976 fps
Color space : YUV
Chroma subsampling : 4:2:0
Bit depth : 8 bits
Scan type : Progressive
Compression mode : Lossy
Bits/(Pixel*Frame) : 0.214
Stream size : 633 MiB (92%)
Writing library : XviD 1.1.0 Beta1 (UTC 2005-01-16)

Audio
ID : 1
Format : MPEG Audio
Format version : Version 1
Format profile : Layer 3
Mode : Joint stereo
Mode extension : MS Stereo
Codec ID : 55
Codec ID/Hint : MP3
Duration : 56mn 1s
Bit rate mode : Constant
Bit rate : 128 Kbps
Channel(s) : 2 channels
Sampling rate : 44.1 KHz
Compression mode : Lossy
Video delay : 26ms
Stream size : 51.3 MiB (7%)
Alignment : Split accross interleaves
Interleave, duration : 26 ms (0.63 video frame)


Radio Bikini (1988)

Radio Bikini (1988)


Feel free to contact me when links are dead