Rampage - Big meets Bigger (2018)

Posted By: Tavaz
SD / BDRip IMDb
Rampage - Big meets Bigger (2018)

Rampage - Big meets Bigger (2018)
BDRip | MKV | 720x300 | German | H264 @ 903 kbps | AC-3 @ 384 kbps | 1 h 47 min | 1 009 MiB
Subtitles: German
Genre: Action, Adventure, Fantasy, Science Fiction

Mit seinen Mitmenschen kommt der renommierte Primatenforscher Davis Okoye nicht besonders gut zurecht, mit dem Gorilla George hingegen schon. Okoye hat den außergewöhnlich intelligenten Silberrücken aufgezogen, seit dieser ein kleines Affenbaby war. Die beiden verbindet eine tiefe Freundschaft. Doch dann geht eines Tages ein illegales Genexperiment gehörig schief und der eigentlich so sanftmütige George mutiert zu einem gewaltigen, wildgewordenen, riesigen Monster. Auch andere Tiere wurden in wilde Bestien verwandelt und sorgen ebenso wie George für Tod und Zerstörung. Okoye schließt sich mit der Gentechnikerin Dr. Kate Caldwell zusammen, um ein Gegenmittel zu entwickeln, das die Tiere wieder zurückverwandelt. Das ist bei dem ganzen Chaos ziemlich schwierig, zumal auch noch der gerissene Regierungsagent Russell auf Okoye und Dr. Caldwell angesetzt wurde…

Was.die.VAVOO.BOX.alles.kann.erfaehrst.Du.in.diesem.Video.m4v (32.2 MB)
ps-ramp.bdrip.5.1.x264.mkv (1009.4 MB)



General
Unique ID : 230613589580362599560509000733749649707 (0xAD7E8FD085A8DB03BC4D35BD12AFA12B)
Complete name : ./Rampage.Big.Meets.Bigger.2018.BDRip.AC3D.5.1.German.x264-PS/ps-ramp.bdrip.5.1.x264.mkv
Format : Matroska
Format version : Version 2
File size : 1 009 MiB
Duration : 1 h 47 min
Overall bit rate : 1 314 kb/s
Encoded date : UTC 2018-07-30 19:34:54
Writing application : mkvmerge v3.4.0 ('Rapunzel') gebaut am May 15 2010 09:38:20
Writing library : libebml v0.8.0 + libmatroska v0.9.0

Video
ID : 1
Format : AVC
Format/Info : Advanced Video Codec
Format profile : High@L3.1
Format settings : CABAC / 5 Ref Frames
Format settings, CABAC : Yes
Format settings, RefFrames : 5 frames
Codec ID : V_MPEG4/ISO/AVC
Duration : 1 h 47 min
Bit rate : 904 kb/s
Width : 720 pixels
Height : 300 pixels
Display aspect ratio : 2.40:1
Frame rate mode : Constant
Frame rate : 23.976 FPS
Color space : YUV
Chroma subsampling : 4:2:0
Bit depth : 8 bits
Scan type : Progressive
Bits/(Pixel*Frame) : 0.175
Stream size : 694 MiB (69%)
Title : X264
Writing library : x264 core 155 r2901 7d0ff22
Encoding settings : cabac=1 / ref=5 / deblock=1:-2:-2 / analyse=0x3:0x113 / me=hex / subme=8 / psy=1 / psy_rd=0.90:0.00 / mixed_ref=1 / me_range=16 / chroma_me=1 / trellis=2 / 8x8dct=1 / cqm=0 / deadzone=21,11 / fast_pskip=1 / chroma_qp_offset=-2 / threads=9 / lookahead_threads=1 / sliced_threads=0 / nr=0 / decimate=1 / interlaced=0 / bluray_compat=0 / constrained_intra=0 / bframes=3 / b_pyramid=2 / b_adapt=1 / b_bias=0 / direct=3 / weightb=1 / open_gop=0 / weightp=2 / keyint=250 / keyint_min=23 / scenecut=40 / intra_refresh=0 / rc_lookahead=50 / rc=crf / mbtree=1 / crf=19.0 / qcomp=0.60 / qpmin=0 / qpmax=69 / qpstep=4 / ip_ratio=1.40 / aq=1:1.00
Language : English
Default : No
Forced : No
Color range : Limited
Matrix coefficients : BT.709

Audio
ID : 2
Format : AC-3
Format/Info : Audio Coding 3
Format settings, Endianness : Big
Codec ID : A_AC3
Duration : 1 h 47 min
Bit rate mode : Constant
Bit rate : 384 kb/s
Channel(s) : 6 channels
Channel positions : Front: L C R, Side: L R, LFE
Sampling rate : 48.0 kHz
Frame rate : 31.250 FPS (1536 SPF)
Bit depth : 16 bits
Compression mode : Lossy
Stream size : 295 MiB (29%)
Language : German
Service kind : Complete Main
Default : Yes
Forced : Yes

Text
ID : 3
Format : UTF-8
Codec ID : S_TEXT/UTF8
Codec ID/Info : UTF-8 Plain Text
Language : German
Default : Yes
Forced : Yes

Menu
00:00:00.000 : en:00:00:00.000
00:12:58.528 : en:00:12:58.528
00:19:56.278 : en:00:19:56.278
00:29:53.291 : en:00:29:53.291
00:40:35.391 : en:00:40:35.391
00:49:10.906 : en:00:49:10.906
01:02:38.171 : en:01:02:38.171
01:10:37.650 : en:01:10:37.650
01:20:10.472 : en:01:20:10.472
01:29:23.608 : en:01:29:23.608
01:39:43.186 : en:01:39:43.186





Rampage - Big meets Bigger (2018)


Rampage - Big meets Bigger (2018)


Rampage - Big meets Bigger (2018)


Rampage - Big meets Bigger (2018)


Rampage - Big meets Bigger (2018)