Rampage (2018)

Posted By: JohnSmith
SD / CAMRip IMDb
Rampage (2018)

Rampage (2018)
CAMRip 720p | MKV / AVC@4040 kb/s | 1280x720 | 1h 39mn | 3 GB | English: AC3, 192 kb/s (2 ch)
Genre: Action | Adventure | Sci-Fi

Primatologist Davis Okoye shares an unshakable bond with George, the extraordinarily intelligent gorilla who has been in his care since birth. But a rogue genetic experiment gone awry transforms this gentle ape into a raging monster. As these newly created monsters tear across North America, destroying everything in their path, Okoye teams with a discredited genetic engineer to secure an antidote, fighting his way through an ever-changing battlefield, not only to halt a global catastrophe but to save the fearsome creature that was once his friend.




General
Unique ID : 171681396397333229586089658540149998139 (0x8128A25C5881426DA01F146821C0823B)
Complete name : C:\Rampage_2018.720p.HDCAM.X264-WeWantToSell.mkv
Format : Matroska
Format version : Version 4 / Version 2
File size : 3.00 GiB
Duration : 1 h 39 min
Overall bit rate : 4 317 kb/s
Encoded date : UTC 2018-04-13 15:48:15
Writing application : mkvmerge v6.9.1 ('Blue Panther') 64bit built on Apr 18 2014 18:23:38
Writing library : libebml v1.3.0 + libmatroska v1.4.1

Video
ID : 1
Format : AVC
Format/Info : Advanced Video Codec
Format profile : Baseline@L3
Format settings, CABAC : No
Format settings, ReFrames : 1 frame
Codec ID : V_MPEG4/ISO/AVC
Duration : 1 h 39 min
Bit rate : 4 039 kb/s
Width : 1 280 pixels
Height : 720 pixels
Display aspect ratio : 16:9
Frame rate mode : Constant
Frame rate : 29.970 (29970/1000) FPS
Original frame rate : 29.000 FPS
Color space : YUV
Chroma subsampling : 4:2:0
Bit depth : 8 bits
Scan type : Progressive
Bits/(Pixel*Frame) : 0.146
Stream size : 2.81 GiB (94%)
Default : Yes
Forced : No

Audio
ID : 2
Format : AC-3
Format/Info : Audio Coding 3
Format settings, Endianness : Big
Codec ID : A_AC3
Duration : 1 h 39 min
Bit rate mode : Constant
Bit rate : 192 kb/s
Channel(s) : 2 channels
Channel positions : Front: L R
Sampling rate : 48.0 kHz
Frame rate : 31.250 FPS (1536 spf)
Bit depth : 16 bits
Compression mode : Lossy
Delay relative to video : -154 ms
Stream size : 137 MiB (4%)
Language : English
Service kind : Complete Main
Default : Yes
Forced : No




Screenshots

Rampage (2018)

Rampage (2018)

Rampage (2018)