Rampage (2018)

Posted By: Without
1080p (FullHD) / BluRay Remux IMDb
Rampage (2018)

Rampage (2018)
BD-Remux | MKV | 1920x1080 | AVC@23.7 Mb/s | English TrueHD@3279 kb/s (8 ch)
English AC3@448 kb/s (6 ch) | 1 h 47 min | 20.6 GB
Subs: English, French, Portuguese, Spanish
Genre: Action, Adventure, Sci-Fi

When three different animals become infected with a dangerous pathogen, a primatologist and a geneticist team up to stop them from destroying Chicago.



General
Rampage.2018.1080p.BluRay.REMUX.AVC.Atmos-EPSiLON.mkv
Format : Matroska
Format version : Version 4 / Version 2
File size : 20.7 GiB
Duration : 1 h 47 min
Overall bit rate mode : Variable
Overall bit rate : 27.6 Mb/s
Encoded date : UTC 2018-07-04 13:41:02
Writing application : mkvmerge v24.0.0 ('Beyond The Pale') 64-bit
Writing library : libebml v1.3.6 + libmatroska v1.4.9

Video
ID : 1
Format : AVC
Format/Info : Advanced Video Codec
Format profile : High@L4.1
Format settings, CABAC : Yes
Format settings, RefFrames : 4 frames
Codec ID : V_MPEG4/ISO/AVC
Duration : 1 h 47 min
Bit rate mode : Variable
Bit rate : 23.7 Mb/s
Maximum bit rate : 28.0 Mb/s
Width : 1 920 pixels
Height : 1 080 pixels
Display aspect ratio : 16:9
Frame rate mode : Constant
Frame rate : 23.976 (24000/1001) FPS
Color space : YUV
Chroma subsampling : 4:2:0
Bit depth : 8 bits
Scan type : Progressive
Bits/(Pixel*Frame) : 0.476
Stream size : 17.7 GiB (86%)
Title : MPEG-4 AVC Video / 23909 kbps / 1080p / 23.976 fps / 16:9 / High Profile 4.1
Language : English
Default : Yes
Forced : No

Audio #1
ID : 2
Format : TrueHD
Format profile : TrueHD+Atmos / TrueHD
Codec ID : A_TRUEHD
Duration : 1 h 47 min
Bit rate mode : Variable
Bit rate : 3 279 kb/s
Maximum bit rate : 5 205 kb/s
Channel(s) : Object Based / 8 channels
Channel positions : Object Based / Front: L C R, Side: L R, Back: L R, LFE
Sampling rate : / 48.0 kHz
Frame rate : 1 200.000 FPS (40 SPF)
Compression mode : Lossless
Stream size : 2.46 GiB (12%)
Title : Dolby Atmos/TrueHD Audio / 7.1-Atmos / 48 kHz / 3279 kbps / 16-bit
Language : English
Default : Yes
Forced : No

Audio #2
ID : 3
Format : AC-3
Format/Info : Audio Coding 3
Format settings, Endianness : Big
Codec ID : A_AC3
Duration : 1 h 47 min
Bit rate mode : Constant
Bit rate : 448 kb/s
Channel(s) : 6 channels
Channel positions : Front: L C R, Side: L R, LFE
Sampling rate : 48.0 kHz
Frame rate : 31.250 FPS (1536 SPF)
Bit depth : 16 bits
Compression mode : Lossy
Stream size : 344 MiB (2%)
Title : Compatibility Track / Dolby Digital Audio / 5.1-EX / 48 kHz / 448 kbps
Language : English
Service kind : Complete Main
Default : No
Forced : No

Text #1
ID : 4
Format : PGS
Codec ID : S_HDMV/PGS
Codec ID/Info : Picture based subtitle format used on BDs/HD-DVDs
Duration : 1 h 45 min
Bit rate : 36.7 kb/s
Count of elements : 3088
Stream size : 27.7 MiB (0%)
Title : SDH
Language : English
Default : No
Forced : No

Text #2
ID : 5
Format : PGS
Codec ID : S_HDMV/PGS
Codec ID/Info : Picture based subtitle format used on BDs/HD-DVDs
Duration : 1 h 46 min
Bit rate : 24.3 kb/s
Count of elements : 2374
Stream size : 18.6 MiB (0%)
Language : French
Default : No
Forced : No

Text #3
ID : 6
Format : PGS
Codec ID : S_HDMV/PGS
Codec ID/Info : Picture based subtitle format used on BDs/HD-DVDs
Duration : 1 h 46 min
Bit rate : 27.8 kb/s
Count of elements : 2562
Stream size : 21.2 MiB (0%)
Title : Brazilian
Language : Portuguese
Default : No
Forced : No

Text #4
ID : 7
Format : PGS
Codec ID : S_HDMV/PGS
Codec ID/Info : Picture based subtitle format used on BDs/HD-DVDs
Duration : 1 h 46 min
Bit rate : 29.7 kb/s
Count of elements : 2552
Stream size : 22.6 MiB (0%)
Title : Latin American
Language : Spanish
Default : No
Forced : No

Menu
00:00:00.000 : en:Chapter 1
00:12:58.528 : en:Chapter 2
00:19:56.278 : en:Chapter 3
00:29:53.291 : en:Chapter 4
00:40:35.391 : en:Chapter 5
00:49:10.906 : en:Chapter 6
01:02:38.171 : en:Chapter 7
01:10:37.650 : en:Chapter 8
01:20:10.472 : en:Chapter 9
01:29:23.608 : en:Chapter 10
01:39:43.186 : en:Chapter 11


Screenshots

Rampage (2018)

Rampage (2018)

Rampage (2018)

Rampage (2018)

Rampage (2018)

Rampage (2018)


Come Visit My Blog (•‿•)