Tags
Language
Tags

Rape Zombie: Lust of the Dead 2 (2013)

Posted By: Tavaz
720p (HD) / BDRip IMDb
Rape Zombie: Lust of the Dead 2 (2013)

Rape Zombie: Lust of the Dead 2 (2013)
BDRip | MKV | 1280x720 | 日本語 | H264 @ 2560 kbps | AC-3 @ 192 kbps | 1 h 8 min | 1.32 GiB
Subtitles: English
Genre: Horror, Comedy

A strange virus turns 90% of the world population into Lust eating Zombies. However, in Akihabara, Japan, some males were found to be uninfected. These men team up with the Zombies to go after the flesh and blood of surviving young women to fill their lust. The women survivors must fight to survive in an apocalyptic Japan.

7dd9cc482acaeb8710bbce5e6dbcec33.mkv (1.3 GB)



General
Unique ID : 296979742741459381559339138189340593998 (0xDF6C37CB0FB0F21463A0B33873E64F4E)
Complete name : ./7dd9cc482acaeb8710bbce5e6dbcec33.mkv
Format : Matroska
Format version : Version 4 / Version 2
File size : 1.32 GiB
Duration : 1 h 8 min
Overall bit rate : 2 749 kb/s
Movie name : Rape.Zombie.Lust.of.the.Dead.2.2013.720p.BluRay.x264-x0r
Encoded date : UTC 2020-12-29 16:27:08
Writing application : mkvmerge v7.7.0 ('Six Voices') 64bit built on Mar 1 2015 01:50:05
Writing library : libebml v1.3.1 + libmatroska v1.4.2

Video
ID : 1
Format : AVC
Format/Info : Advanced Video Codec
Format profile : High@L4
Format settings : CABAC / 8 Ref Frames
Format settings, CABAC : Yes
Format settings, RefFrames : 8 frames
Codec ID : V_MPEG4/ISO/AVC
Duration : 1 h 8 min
Bit rate : 2 560 kb/s
Width : 1 280 pixels
Height : 720 pixels
Display aspect ratio : 16:9
Frame rate mode : Constant
Frame rate : 29.970 (30000/1001) FPS
Color space : YUV
Chroma subsampling : 4:2:0
Bit depth : 8 bits
Scan type : Progressive
Bits/(Pixel*Frame) : 0.093
Stream size : 1.23 GiB (93%)
Writing library : x264 core 155 r2917 0a84d98
Encoding settings : cabac=1 / ref=8 / deblock=1:-2:-2 / analyse=0x3:0x133 / me=umh / subme=9 / psy=1 / psy_rd=1.00:0.25 / mixed_ref=0 / me_range=24 / chroma_me=1 / trellis=2 / 8x8dct=1 / cqm=0 / deadzone=21,11 / fast_pskip=1 / chroma_qp_offset=-4 / threads=22 / lookahead_threads=2 / sliced_threads=0 / nr=0 / decimate=0 / interlaced=0 / bluray_compat=0 / constrained_intra=0 / bframes=4 / b_pyramid=2 / b_adapt=2 / b_bias=0 / direct=3 / weightb=1 / open_gop=0 / weightp=1 / keyint=300 / keyint_min=30 / scenecut=40 / intra_refresh=0 / rc_lookahead=120 / rc=2pass / mbtree=0 / bitrate=2560 / ratetol=1.0 / qcomp=0.60 / qpmin=0 / qpmax=69 / qpstep=4 / cplxblur=20.0 / qblur=0.5 / vbv_maxrate=20000 / vbv_bufsize=25000 / nal_hrd=none / filler=0 / ip_ratio=1.40 / pb_ratio=1.30 / aq=1:1.00
Language : Japanese
Default : Yes
Forced : No
Color range : Limited
Color primaries : BT.709
Transfer characteristics : BT.709
Matrix coefficients : BT.709

Audio
ID : 2
Format : AC-3
Format/Info : Audio Coding 3
Format settings, Endianness : Big
Codec ID : A_AC3
Duration : 1 h 8 min
Bit rate mode : Constant
Bit rate : 192 kb/s
Channel(s) : 2 channels
Channel positions : Front: L R
Sampling rate : 48.0 kHz
Frame rate : 31.250 FPS (1536 SPF)
Bit depth : 16 bits
Compression mode : Lossy
Delay relative to video : -5 ms
Stream size : 94.5 MiB (7%)
Title : Stereo
Language : Japanese
Service kind : Complete Main
Default : Yes
Forced : No

Text
ID : 3
Format : UTF-8
Codec ID : S_TEXT/UTF8
Codec ID/Info : UTF-8 Plain Text
Duration : 1 h 5 min
Bit rate : 40 b/s
Count of elements : 544
Stream size : 19.3 KiB (0%)
Language : English
Default : Yes
Forced : No

Menu
00:00:00.000 : :Chapter 1
00:14:52.125 : :Chapter 2
00:27:24.676 : :Chapter 3
00:37:31.082 : :Chapter 4
00:49:43.481 : :Chapter 5
00:57:55.172 : :Chapter 6





Rape Zombie: Lust of the Dead 2 (2013)


Rape Zombie: Lust of the Dead 2 (2013)


Rape Zombie: Lust of the Dead 2 (2013)


Rape Zombie: Lust of the Dead 2 (2013)


Rape Zombie: Lust of the Dead 2 (2013)