Tags
Language
Tags

Rawhead Rex (1986)

Posted By: Tavaz
1080p (FullHD) / BDRip IMDb
Rawhead Rex (1986)

Rawhead Rex (1986)
BDRip | MKV | 1920x1040 | English | H264 @ 12446 kbps | DTS @ 1509 kbps | 1 h 29 min | 8.74 GiB
Subtitles: English
Genre: Fantasy, Horror, Mystery, Thriller

An ancient creature called Rawhead is awakened from its slumber near an Irish village and goes on a rampage killing anyone in sight.,Writer Howard Hallenbeck is spending his vacation in the countryside of Ireland with his wife Elaine and their children, researching legends and myths for his book. Meanwhile, a farmer is trying to remove an old column on the field and accidentally unleashes the evil pagan god Rawhead Rex who begins a crime spree in the village where Howard and his family are lodged.::Claudio Carvalho, Rio de Janeiro, Brazil

Rawhead.Rex.1986.1080p.BluRay.x264-PSYCHD.part1.rar (4.6 GB)
Rawhead.Rex.1986.1080p.BluRay.x264-PSYCHD.part2.rar (4.2 GB)



General
Unique ID : 0 (0x0)
Complete name : ./6519ea2f704347a9b9a20518f4c98ab4.mkv
Format : Matroska
Format version : Version 4 / Version 2
File size : 8.74 GiB
Duration : 1 h 29 min
Overall bit rate : 14.0 Mb/s
Encoded date : UTC 2010-02-22 21:41:29
Writing application : no_variable_data
Writing library : no_variable_data

Video
ID : 1
Format : AVC
Format/Info : Advanced Video Codec
Format profile : High@L4.1
Format settings : CABAC / 4 Ref Frames
Format settings, CABAC : Yes
Format settings, RefFrames : 4 frames
Codec ID : V_MPEG4/ISO/AVC
Duration : 1 h 29 min
Bit rate : 12.4 Mb/s
Width : 1 920 pixels
Height : 1 040 pixels
Display aspect ratio : 1.85:1
Frame rate mode : Constant
Frame rate : 23.976 (24000/1001) FPS
Color space : YUV
Chroma subsampling : 4:2:0
Bit depth : 8 bits
Scan type : Progressive
Bits/(Pixel*Frame) : 0.260
Stream size : 7.62 GiB (87%)
Writing library : x264 core 152 r2851 ba24899
Encoding settings : cabac=1 / ref=4 / deblock=1:-3:-3 / analyse=0x3:0x113 / me=umh / subme=8 / psy=1 / psy_rd=1.15:0.00 / mixed_ref=1 / me_range=32 / chroma_me=1 / trellis=2 / 8x8dct=1 / cqm=0 / deadzone=21,11 / fast_pskip=1 / chroma_qp_offset=-2 / threads=24 / lookahead_threads=4 / sliced_threads=0 / nr=0 / decimate=1 / interlaced=0 / bluray_compat=0 / constrained_intra=0 / bframes=3 / b_pyramid=2 / b_adapt=2 / b_bias=0 / direct=3 / weightb=1 / open_gop=0 / weightp=2 / keyint=240 / keyint_min=24 / scenecut=40 / intra_refresh=0 / rc_lookahead=50 / rc=2pass / mbtree=1 / bitrate=12446 / ratetol=1.0 / qcomp=0.60 / qpmin=0 / qpmax=69 / qpstep=4 / cplxblur=20.0 / qblur=0.5 / ip_ratio=1.40 / aq=3:0.75
Default : Yes
Forced : No
Statistics Tags Issue : no_variable_data 1970-01-01 00:00:00 / no_variable_data 2010-02-22 21:41:29
FromStats_BitRate : 12439380
FromStats_Duration : 01:29:41.627000000
FromStats_FrameCount : 129030
FromStats_StreamSize : 8368013024

Audio
ID : 2
Format : DTS
Format/Info : Digital Theater Systems
Mode : 16
Format settings, Endianness : Big
Codec ID : A_DTS
Duration : 1 h 29 min
Bit rate mode : Constant
Bit rate : 1 509 kb/s
Channel(s) : 6 channels
Channel positions : Front: L C R, Side: L R, LFE
Sampling rate : 48.0 kHz
Frame rate : 93.750 FPS (512 SPF)
Bit depth : 24 bits
Compression mode : Lossy
Stream size : 968 MiB (11%)
Language : English
Default : Yes
Forced : No
Statistics Tags Issue : no_variable_data 1970-01-01 00:00:00 / no_variable_data 2010-02-22 21:41:29
FromStats_BitRate : 1508999
FromStats_Duration : 01:29:41.643000000
FromStats_FrameCount : 504529
FromStats_StreamSize : 1015112348

Text
ID : 3
Format : UTF-8
Codec ID : S_TEXT/UTF8
Codec ID/Info : UTF-8 Plain Text
Language : English
Default : No
Forced : No
Statistics Tags Issue : no_variable_data 1970-01-01 00:00:00 / no_variable_data 2010-02-22 21:41:29
FromStats_BitRate : 36
FromStats_Duration : 01:24:15.885000000
FromStats_FrameCount : 791
FromStats_StreamSize : 22769

Menu
00:00:00.000 : en:00:00:00.000
00:12:25.329 : en:00:12:25.329
00:22:45.324 : en:00:22:45.324
00:38:51.581 : en:00:38:51.581
00:48:11.473 : en:00:48:11.473
00:59:21.601 : en:00:59:21.601
01:06:33.157 : en:01:06:33.157
01:15:39.119 : en:01:15:39.119





Rawhead Rex (1986)


Rawhead Rex (1986)


Rawhead Rex (1986)


Rawhead Rex (1986)


Rawhead Rex (1986)