ReGeneration (2010)

Posted By: vivid23
ReGeneration (2010)

ReGeneration (2010)
DVDrip | 624x352 | AVI/XviD @ 1091 Kbps | 79mn | Audio: English MP3 160 kbps, 2 channels | Subs: None | 700 MB
Genre: Documentary

ReGENERATION explores the inherent cynicism found in many of today's youth and young adults, and the influences that perpetuate our culture's apathetic approach to social and political causes. The film features three intersecting stories of students, parents, and artists all looking for their place in society. Together they capture the thoughts and feelings of today's struggling generation as some of the worlds leading scholars, activists, and media personalities provide their insight into the ideas and movements that can inspire change.

More info

Video
ID : 0
Format : MPEG-4 Visual
Format profile : Advanced Simple@L5
Format settings, BVOP : Yes
Format settings, QPel : No
Format settings, GMC : No warppoints
Format settings, Matrix : Default (MPEG)
Codec ID : XVID
Codec ID/Hint : XviD
Duration : 1h 19mn
Bit rate : 1 091 Kbps
Width : 624 pixels
Height : 352 pixels
Display aspect ratio : 16:9
Frame rate : 23.976 fps
Color space : YUV
Chroma subsampling : 4:2:0
Bit depth : 8 bits
Scan type : Progressive
Compression mode : Lossy
Bits/(Pixel*Frame) : 0.207
Stream size : 619 MiB (88%)
Writing library : XviD 1.2.1 (UTC 2008-12-04)

Audio
ID : 1
Format : MPEG Audio
Format version : Version 1
Format profile : Layer 3
Mode : Joint stereo
Mode extension : MS Stereo
Codec ID : 55
Codec ID/Hint : MP3
Duration : 1h 19mn
Bit rate mode : Variable
Bit rate : 129 Kbps
Nominal bit rate : 160 Kbps
Channel(s) : 2 channels
Sampling rate : 48.0 KHz
Compression mode : Lossy
Stream size : 73.4 MiB (10%)
Alignment : Aligned on interleaves
Interleave, duration : 24 ms (0.58 video frame)
Interleave, preload duration : 99 ms
Title : VTS_01_1 T80 2_0ch 192Kbps DELAY 0ms
Writing library : LAME3.99r
Encoding settings : -m j -V 4 -q 2 -lowpass 17.5 –abr 160


ReGeneration (2010)

ReGeneration (2010)


Feel free to contact me when links are dead