Tags
Language
Tags

Red Eye (2005)

Posted By: Tavaz
1080p (FullHD) / BDRip IMDb
Red Eye (2005)

Red Eye (2005)
BDRip | MKV | 1920x800 | English | H264 @ 11557 kbps | AC-3 @ 640 kbps | 1 h 25 min | 7.37 GiB
Subtitles: English
Genre: Thriller

A woman is kidnapped by a stranger on a routine flight. Threatened by the potential murder of her father, she is pulled into a plot to assist her captor in a political assassination.,This is the story of a young resourceful heroine named Lisa Reisert who hates to fly, but the terror that awaits her on the night flight to Miami has nothing to do with a fear of flying! Upon boarding the plane, Lisa is trapped on a red-eye flight with a creepy villainous handsome and charming man by the name of Jackson Rippner, who's playing middle-man in the plot to assassinate a Homeland Security official. He's got her father pinned down by a would-be killer, using that advantage to coerce Lisa into phoning the luxury resort where she works and arranging to move the target into a pre-set position.::Anthony Pereyra <hypersonic91@yahoo.com>,After attending the funeral of her grandmother in Dallas, the Lux Atlantic Hotel manager Lisa is waiting for a flight to Miami. Due to the bad weather and consequent flight delay, she meets in the airport bar Jack Rippner, who is also in the waiting list. They sit together in the plane, and Jack reveals that he wants Lisa to change the room in Lux of an important American politician to facilitate a terrorist attempt against him. Otherwise, Lisa's father will be killed by a hit man. Lisa has to decide what to do with the menacing man at her side.::Claudio Carvalho, Rio de Janeiro, Brazil,Red Eye tells the story of a young hotel manager Lisa Reisert who after attending the funeral of her grandmother is on her way back to Miami to make it in time for work the next day. She takes the much delayed Red Eye flight of Fresh Air where she meets Jack Ripner. Soon after take off she realizes that she is in fact kidnapped by Jack who needs her in order to assassinate William Keefe, head of Homeland Security. Jack threatens her with her fathers death if she refuses to co-operate. At 30000 feet and nowhere to run, what does she do?::Ajay D'Souza

Red.Eye.2005.1080p.BluRay.DD5.1.x264-imh.mkv (7.4 GB)



General
Unique ID : 127865035783534026993695778190717651394 (0x6031E8FDFD327ABA7EB4FA41115489C2)
Complete name : ./Red.Eye.2005.1080p.BluRay.DD5.1.x264-imh.mkv
Format : Matroska
Format version : Version 4 / Version 2
File size : 7.37 GiB
Duration : 1 h 25 min
Overall bit rate : 12.4 Mb/s
Movie name : Red Eye (2005)
Encoded date : UTC 2022-04-11 14:00:40
Writing application : mkvmerge v66.0.0 ('Josie') 64-bit
Writing library : libebml v1.4.2 + libmatroska v1.6.4

Video
ID : 1
Format : AVC
Format/Info : Advanced Video Codec
Format profile : High@L4.1
Format settings : CABAC / 5 Ref Frames
Format settings, CABAC : Yes
Format settings, RefFrames : 5 frames
Codec ID : V_MPEG4/ISO/AVC
Duration : 1 h 25 min
Bit rate : 11.6 Mb/s
Width : 1 920 pixels
Height : 800 pixels
Display aspect ratio : 2.40:1
Frame rate mode : Constant
Frame rate : 23.976 (24000/1001) FPS
Color space : YUV
Chroma subsampling : 4:2:0
Bit depth : 8 bits
Scan type : Progressive
Bits/(Pixel*Frame) : 0.314
Stream size : 6.88 GiB (93%)
Writing library : x264 core 164 r3094 bfc87b7
Encoding settings : cabac=1 / ref=5 / deblock=1:-3:-3 / analyse=0x3:0x133 / me=umh / subme=10 / psy=1 / psy_rd=1.00:0.00 / mixed_ref=1 / me_range=32 / chroma_me=1 / trellis=2 / 8x8dct=1 / cqm=0 / deadzone=21,11 / fast_pskip=0 / chroma_qp_offset=-2 / threads=18 / lookahead_threads=4 / sliced_threads=0 / nr=0 / decimate=0 / interlaced=0 / bluray_compat=0 / constrained_intra=0 / bframes=16 / b_pyramid=2 / b_adapt=2 / b_bias=0 / direct=3 / weightb=1 / open_gop=0 / weightp=2 / keyint=250 / keyint_min=24 / scenecut=40 / intra_refresh=0 / rc_lookahead=250 / rc=crf / mbtree=0 / crf=17.2 / qcomp=0.60 / qpmin=0 / qpmax=69 / qpstep=4 / vbv_maxrate=62500 / vbv_bufsize=78125 / crf_max=0.0 / nal_hrd=none / filler=0 / ip_ratio=1.30 / pb_ratio=1.20 / aq=3:0.80
Language : English
Default : Yes
Forced : No

Audio #1
ID : 2
Format : AC-3
Format/Info : Audio Coding 3
Format settings, Endianness : Big
Codec ID : A_AC3
Duration : 1 h 25 min
Bit rate mode : Constant
Bit rate : 640 kb/s
Channel(s) : 6 channels
Channel positions : Front: L C R, Side: L R, LFE
Sampling rate : 48.0 kHz
Frame rate : 31.250 FPS (1536 SPF)
Bit depth : 16 bits
Compression mode : Lossy
Stream size : 390 MiB (5%)
Title : Movie
Language : English
Service kind : Complete Main
Default : Yes
Forced : No

Audio #2
ID : 3
Format : AC-3
Format/Info : Audio Coding 3
Format settings, Endianness : Big
Codec ID : A_AC3
Duration : 1 h 25 min
Bit rate mode : Constant
Bit rate : 192 kb/s
Channel(s) : 2 channels
Channel positions : Front: L R
Sampling rate : 48.0 kHz
Frame rate : 31.250 FPS (1536 SPF)
Bit depth : 16 bits
Compression mode : Lossy
Stream size : 117 MiB (2%)
Title : Commentary by director Wes Craven, producer Marianne Maddalena and editor Patrick Lussier
Language : English
Service kind : Complete Main
Default : No
Forced : No

Text
ID : 4
Format : UTF-8
Codec ID : S_TEXT/UTF8
Codec ID/Info : UTF-8 Plain Text
Duration : 1 h 15 min
Bit rate : 62 b/s
Count of elements : 977
Stream size : 34.7 KiB (0%)
Language : English
Default : No
Forced : No

Menu
00:00:00.000 : en:Chapter 01
00:04:50.332 : en:Chapter 02
00:14:09.182 : en:Chapter 03
00:20:15.381 : en:Chapter 04
00:30:13.729 : en:Chapter 05
00:37:51.603 : en:Chapter 06
00:45:34.690 : en:Chapter 07
00:52:25.476 : en:Chapter 08
00:57:24.858 : en:Chapter 09
01:04:14.517 : en:Chapter 10
01:12:06.447 : en:Chapter 11
01:16:50.481 : en:Chapter 12





Red Eye (2005)


Red Eye (2005)


Red Eye (2005)


Red Eye (2005)


Red Eye (2005)