Red Sparrow (2018)

Posted By: JohnSmith
SD / WEBRip IMDb
Red Sparrow (2018)

Red Sparrow (2018)
WEBRip MD | MKV / AVC@1700 kb/s | 720x304 | 2h 15mn | 1.71 GB
Italian (dubbed): MP3, 128 kb/s (2 ch) | Subtitles: Korean (hardcoded)
Genre: Drama | Mystery | Thriller

Dominika Egorova è costretta contro la sua stessa volontà a diventare un "passero", ovvero una seduttrice addestrata dal servizio di sicurezza russo. Impara dunque a usare il proprio corpo come arma e si sforza di conservare una minima forma di consapevolezza e indipendenza durante quello che è un processo di formazione disumanizzante. Il suo primo obiettivo è Nate Nash, un ufficiale della Cia che si occupa di infiltrazione. Appartenendo a servizi segreti nemici, Dominika e Nate finiranno con il farsi travolgere da una spirale di attrazione e inganni che minaccerà le loro carriere e la sicurezza delle loro nazioni.




General
Unique ID : 245446413155740806940160906760825210613 (0xB8A7427AA50530F098394CE95BE206F5)
Complete name : A:\Red.Sparrow.2018.iTALiAN.MD.WEBRip.mkv
Format : Matroska
Format version : Version 4 / Version 2
File size : 1.71 GiB
Duration : 2 h 15 min
Overall bit rate : 1 804 kb/s
Encoded date : UTC 2018-04-15 19:39:59
Writing application : mkvmerge v8.3.0 ('Over the Horizon') 64bit
Writing library : libebml v1.3.1 + libmatroska v1.4.2

Video
ID : 1
Format : AVC
Format/Info : Advanced Video Codec
Format profile : High@L4.1
Format settings, CABAC : Yes
Format settings, ReFrames : 5 frames
Codec ID : V_MPEG4/ISO/AVC
Duration : 2 h 15 min
Bit rate : 1 700 kb/s
Width : 720 pixels
Height : 304 pixels
Display aspect ratio : 2.35:1
Frame rate mode : Constant
Frame rate : 29.970 (30000/1001) FPS
Color space : YUV
Chroma subsampling : 4:2:0
Bit depth : 8 bits
Scan type : Progressive
Bits/(Pixel*Frame) : 0.259
Stream size : 1.59 GiB (93%)
Writing library : x264 core 152 r2851 ba24899
Encoding settings : cabac=1 / ref=5 / deblock=1:-2:-2 / analyse=0x3:0x113 / me=hex / subme=7 / psy=1 / psy_rd=1.00:0.00 / mixed_ref=1 / me_range=16 / chroma_me=1 / trellis=1 / 8x8dct=1 / cqm=0 / deadzone=21,11 / fast_pskip=1 / chroma_qp_offset=-2 / threads=90 / lookahead_threads=2 / sliced_threads=0 / nr=0 / decimate=1 / interlaced=0 / bluray_compat=0 / constrained_intra=0 / bframes=5 / b_pyramid=2 / b_adapt=1 / b_bias=0 / direct=1 / weightb=1 / open_gop=0 / weightp=2 / keyint=250 / keyint_min=25 / scenecut=40 / intra_refresh=0 / rc_lookahead=40 / rc=abr / mbtree=1 / bitrate=1700 / ratetol=1.0 / qcomp=0.60 / qpmin=0 / qpmax=69 / qpstep=4 / ip_ratio=1.40 / aq=1:1.00
Default : Yes
Forced : No

Audio
ID : 2
Format : MPEG Audio
Format version : Version 1
Format profile : Layer 3
Mode : Joint stereo
Mode extension : MS Stereo
Codec ID : A_MPEG/L3
Codec ID/Hint : MP3
Duration : 2 h 15 min
Bit rate mode : Constant
Bit rate : 128 kb/s
Channel(s) : 2 channels
Sampling rate : 48.0 kHz
Frame rate : 41.667 FPS (1152 spf)
Compression mode : Lossy
Stream size : 124 MiB (7%)
Writing library : LAME3.99r
Encoding settings : -m j -V 4 -q 3 -lowpass 17 -b 128
Default : Yes
Forced : No




Screenshots

Red Sparrow (2018)

Red Sparrow (2018)

Red Sparrow (2018)