Red Dawn (2012)

Posted By: NaVi7
Red Dawn (2012)

Red Dawn (2012)
WEBDL | MKV / AVC, 4101 Kbps | 1280x532 | 1h 33mn | 2.98 GB
English: AC3, 384 Kbps (6 ch) | Subtitles: English
Genre: Action

A group of teenagers look to save their town from an invasion of North Korean soldiers.

imdb - 1 nomination.

General
Unique ID : 209212040816028719141353514551670547640 (0x9D64C5FE6B97A9EE9174385F2CB524B8)
Complete name : Red.Dawn.2012.720p.WEB-DL.DD5.1.H.264-HD4FUN.mkv
Format : Matroska
Format version : Version 4 / Version 2
File size : 2.98 GiB
Duration : 1h 33mn
Overall bit rate : 4 576 Kbps
Movie name : ripped by HD4FUN.COM
Encoded date : UTC 2013-02-19 12:35:27
Writing application : mkvmerge v6.0.0 ('Coming Up For Air') built on Jan 20 2013 09:52:00
Writing library : libebml v1.3.0 + libmatroska v1.4.0

Video
ID : 1
Format : AVC
Format/Info : Advanced Video Codec
Format profile : Main@L3.1
Format settings, CABAC : No
Format settings, ReFrames : 2 frames
Codec ID : V_MPEG4/ISO/AVC
Duration : 1h 33mn
Bit rate : 4 101 Kbps
Width : 1 280 pixels
Height : 532 pixels
Display aspect ratio : 2.40:1
Frame rate mode : Constant
Frame rate : 23.976 fps
Color space : YUV
Chroma subsampling : 4:2:0
Bit depth : 8 bits
Scan type : Progressive
Bits/(Pixel*Frame) : 0.251
Stream size : 2.67 GiB (90%)
Title : ripped by HD4FUN.COM
Language : English
Default : Yes
Forced : No
Color primaries : BT.709
Transfer characteristics : BT.709
Matrix coefficients : BT.709

Audio
ID : 2
Format : AC-3
Format/Info : Audio Coding 3
Mode extension : CM (complete main)
Format settings, Endianness : Big
Codec ID : A_AC3
Duration : 1h 33mn
Bit rate mode : Constant
Bit rate : 384 Kbps
Channel(s) : 6 channels
Channel positions : Front: L C R, Side: L R, LFE
Sampling rate : 48.0 KHz
Bit depth : 16 bits
Compression mode : Lossy
Stream size : 256 MiB (8%)
Language : English
Default : Yes
Forced : No

Text
ID : 3
Format : UTF-8
Codec ID : S_TEXT/UTF8
Codec ID/Info : UTF-8 Plain Text
Language : English
Default : No
Forced : No


screenshots:

Red Dawn (2012)

Red Dawn (2012)

Red Dawn (2012)


Welcome to My Blog!

Subscribe to My Newsletter!

No more mirrors!

If you want to download it, but found out that links are dead, just leave a comment or PM me!
Download Links:
Uploaded | Rapidgator
Links to RapidGator and Uploaded are inside the html file. Download the file and open it in your browser.