Deutschland: Regensburg in 3D (2012)

Posted By: ParRus
Deutschland: Regensburg in 3D (2012)

Deutschland: Regensburg in 3D (2012)
3D 720p BluRay Rip | English, German | MKV | 1280 x 720 | AVC ~3991 Kbps | 25 fps
AC-3 | 384 kbps | 48.0 KHz | 2 channels | 41 minutes | 1.4 GB
Country: Germany | Directed By: Daniel Schellhorn
Genre: Documentary, Short

The film is part of Germany in 3D. Regensburg, located at the confluence of the Danube and Regen, one of the most famous of German cities included in the UNESCO World Heritage List. The history of the city dates back to 79 AD, on the site where it was originally a Celtic settlement, and later a fortress of Roman legionaries. Regensburg's old town - it is about thousands of buildings with fewer than one century, different architecture, many tribal palaces XIV-XV centuries with tall towers, built in the style of Northern architecture.
for view need 3d glasses (3D Stereoscopic)
IMDB info

General
Complete name : Regensburg in 3D 2012.mkv
Format : Matroska
Format version : Version 2
File size : 1.40 GiB
Duration : 41mn 21s
Overall bit rate : 4 856 Kbps
Encoded date : UTC 2013-01-22 00:49:58
Writing application : mkvmerge v5.8.0 ('No Sleep / Pillow') built on Sep 2 2012 15:37:04
Writing library : libebml v1.2.3 + libmatroska v1.3.0
Video #1
ID : 1
Format : AVC
Format/Info : Advanced Video Codec
Format profile : High@L4.1
Format settings, CABAC : Yes
Format settings, ReFrames : 8 frames
Codec ID : V_MPEG4/ISO/AVC
Duration : 41mn 21s
Bit rate : 3 991 Kbps
Width : 1 280 pixels
Height : 720 pixels
Display aspect ratio : 16:9
Frame rate : 25.000 fps
Color space : YUV
Chroma subsampling : 4:2:0
Bit depth : 8 bits
Scan type : Progressive
Bits/(Pixel*Frame) : 0.173
Stream size : 1.15 GiB (82%)
Title : DON 2013
Writing library : x264 core 120 r2164 da19765
Encoding settings : cabac=1 / ref=8 / deblock=1:-3:-3 / analyse=0x3:0x113 / me=umh / subme=10 / psy=1 / psy_rd=1.10:0.10 / mixed_ref=1 / me_range=24 / chroma_me=1 / trellis=2 / 8x8dct=1 / cqm=0 / deadzone=21,11 / fast_pskip=1 / chroma_qp_offset=-3 / threads=6 / sliced_threads=0 / nr=0 / decimate=0 / interlaced=0 / bluray_compat=0 / constrained_intra=0 / bframes=7 / b_pyramid=2 / b_adapt=2 / b_bias=0 / direct=3 / weightb=1 / open_gop=0 / weightp=2 / keyint=250 / keyint_min=25 / scenecut=40 / intra_refresh=0 / rc_lookahead=50 / rc=crf / mbtree=1 / crf=18.0 / qcomp=0.75 / qpmin=0 / qpmax=69 / qpstep=4 / vbv_maxrate=50000 / vbv_bufsize=62500 / crf_max=0.0 / nal_hrd=none / ip_ratio=1.40 / aq=1:0.80
Language : German
Audio #2
ID : 2
Format : AC-3
Format/Info : Audio Coding 3
Mode extension : CM (complete main)
Codec ID : A_AC3
Duration : 41mn 21s
Bit rate mode : Constant
Bit rate : 384 Kbps
Channel(s) : 2 channels
Channel positions : Front: L R
Sampling rate : 48.0 KHz
Bit depth : 16 bits
Compression mode : Lossy
Stream size : 114 MiB (8%)
Language : English
Audio #3
ID : 3
Format : AC-3
Format/Info : Audio Coding 3
Mode extension : CM (complete main)
Codec ID : A_AC3
Duration : 41mn 21s
Bit rate mode : Constant
Bit rate : 384 Kbps
Channel(s) : 2 channels
Channel positions : Front: L R
Sampling rate : 48.0 KHz
Bit depth : 16 bits
Compression mode : Lossy
Stream size : 114 MiB (8%)
Title : DON 2013
Language : German

Deutschland: Regensburg in 3D (2012)

Deutschland: Regensburg in 3D (2012)

Deutschland: Regensburg in 3D (2012)

Deutschland: Regensburg in 3D (2012)

Deutschland: Regensburg in 3D (2012)

For more, Visit my AH-blog

no mirrors please, Follow The Rules