PBS POV - Reportero (2013)

Posted By: vivid23
PBS POV - Reportero (2013)

PBS POV - Reportero (2013)
PDTV | 848x480 | MP4/x264 @ 961 Kbps | 56mn | Audio: English AAC 128 kbps, 2 channels | Subs: None | 443 MB
Genre: Documentary

Reportero follows a veteran reporter and his colleagues at Zeta, a Tijuana-based independent newsweekly, as they stubbornly ply their trade in one of the deadliest places in the world for members of the media. In Mexico, more than 50 journalists have been slain or have vanished since December 2006, when President Felipe Calder�n came to power and launched a government offensive against the country’s powerful drug cartels and organized crime. As the drug war intensifies and the risks to journalists become greater, will the free press be silenced? An Official Selection of the 2012 Full Frame Documentary Film Festival. A co-production of Quiet Pictures, ITVS, and Latino Public Broadcasting with funding provided by the Corporation for Public Broadcasting. A co-presentation with Latino Public Broadcasting.

More info

Video
ID : 1
Format : AVC
Format/Info : Advanced Video Codec
Format profile : High@L3.1
Format settings, CABAC : Yes
Format settings, ReFrames : 6 frames
Codec ID : avc1
Codec ID/Info : Advanced Video Coding
Duration : 56mn 39s
Bit rate mode : Variable
Bit rate : 961 Kbps
Maximum bit rate : 4 599 Kbps
Width : 848 pixels
Height : 480 pixels
Display aspect ratio : 16:9
Frame rate mode : Variable
Frame rate : 25.690 fps
Minimum frame rate : 14.985 fps
Maximum frame rate : 60.000 fps
Color space : YUV
Chroma subsampling : 4:2:0
Bit depth : 8 bits
Scan type : Progressive
Bits/(Pixel*Frame) : 0.092
Stream size : 389 MiB (88%)
Writing library : x264 core 120
Encoding settings : cabac=1 / ref=6 / deblock=1:0:0 / analyse=0x3:0x113 / me=umh / subme=10 / psy=1 / psy_rd=2.00:1.00 / mixed_ref=1 / me_range=24 / chroma_me=1 / trellis=2 / 8x8dct=1 / cqm=0 / deadzone=21,11 / fast_pskip=1 / chroma_qp_offset=-4 / threads=3 / sliced_threads=0 / nr=0 / decimate=1 / interlaced=0 / bluray_compat=0 / constrained_intra=0 / bframes=9 / b_pyramid=2 / b_adapt=2 / b_bias=0 / direct=1 / weightb=1 / open_gop=0 / weightp=2 / keyint=300 / keyint_min=30 / scenecut=40 / intra_refresh=0 / rc_lookahead=50 / rc=crf / mbtree=1 / crf=22.0 / qcomp=0.60 / qpmin=3 / qpmax=69 / qpstep=4 / ip_ratio=1.40 / aq=1:1.00
Tagged date : UTC 2013-01-11 13:34:31
Color primaries : BT.709-5, BT.1361, IEC 61966-2-4, SMPTE RP177
Transfer characteristics : BT.709-5, BT.1361
Matrix coefficients : BT.709-5, BT.1361, IEC 61966-2-4 709, SMPTE RP177

Audio
ID : 2
Format : AAC
Format/Info : Advanced Audio Codec
Format version : Version 4
Format profile : LC
Format settings, SBR : No
Codec ID : 40
Duration : 56mn 39s
Bit rate mode : Variable
Bit rate : 129 Kbps
Maximum bit rate : 213 Kbps
Channel(s) : 2 channels
Channel positions : Front: L R
Sampling rate : 48.0 KHz
Compression mode : Lossy
Stream size : 52.3 MiB (12%)
Encoded date : UTC 2013-01-11 13:34:29
Tagged date : UTC 2013-01-11 13:34:31


PBS POV - Reportero (2013)

PBS POV - Reportero (2013)


Feel free to contact me when links are dead