DC No Reservations - Cambodia (2011)

Posted By: vivid23
DC No Reservations - Cambodia (2011)

DC No Reservations - Cambodia (2011)
HDTV | 1280x720 | MKV/x264 @ 3473 Kbps | 42mn | Audio: English AC3 384 kbps, 6 channels | Subs: None | 1.16 GB
Genre: Documentary

Tony visited Cambodia 10 years ago with what he now views as a narrow perspective of the world. Now he sees the parallel between Cambodia's development since then and his own maturation and seeks to reconnect with this historically rich country.

Video
ID : 1
Format : AVC
Format/Info : Advanced Video Codec
Format profile : High@L4.1
Format settings, CABAC : Yes
Format settings, ReFrames : 8 frames
Muxing mode : Header stripping
Codec ID : V_MPEG4/ISO/AVC
Duration : 42mn 14s
Bit rate : 3 473 Kbps
Width : 1 280 pixels
Height : 720 pixels
Display aspect ratio : 16:9
Frame rate : 29.970 fps
Color space : YUV
Chroma subsampling : 4:2:0
Bit depth : 8 bits
Scan type : Progressive
Bits/(Pixel*Frame) : 0.126
Stream size : 1.02 GiB (88%)
Language : English

Audio
ID : 2
Format : AC-3
Format/Info : Audio Coding 3
Mode extension : CM (complete main)
Muxing mode : Header stripping
Codec ID : A_AC3
Duration : 42mn 14s
Bit rate mode : Constant
Bit rate : 384 Kbps
Channel(s) : 6 channels
Channel positions : Front: L C R, Side: L R, LFE
Sampling rate : 48.0 KHz
Bit depth : 16 bits
Compression mode : Lossy
Stream size : 116 MiB (10%)


DC No Reservations - Cambodia (2011)

DC No Reservations - Cambodia (2011)


Feel free to contact me when links are dead