Rising Sun (1993)

Posted By: Tavaz
720p (HD) / BDRip IMDb
Rising Sun (1993)

Rising Sun (1993)
BDRip | MKV | 1280x692 | English | H264 @ 5979 kbps | DTS @ 1509 kbps | 2 h 9 min | 6.69 GiB
Genre: Action, Drama, Thriller

When a prostitute is found dead in a Los Angeles skyscraper occupied by a large Japanese corporation, detectives John Conner and Web Smith are called in to investigate. Although Conner has previous experience working in Japan, cultural differences make their progress difficult until a security disc showing the murder turns up. Close scrutiny proves the disc has been doctored, and the detectives realize they're dealing with a cover-up as well.

Rising.Sun.1993.720p.BluRay.DTS.x264-FuzerHD.mkv (6.7 GB)



General
Unique ID : 259590987550442465268204786382068111724 (0xC34B67D6D1F4612A725FCE20ED51D96C)
Complete name : ./Rising.Sun.1993.720p.BluRay.DTS.x264-FuzerHD.mkv
Format : Matroska
Format version : Version 2
File size : 6.69 GiB
Duration : 2 h 9 min
Overall bit rate : 7 405 kb/s
Encoded date : UTC 2016-03-30T10:31:35Z
Writing application : HandBrake 0.10.5 2016021100
Writing library : Lavf55.12.0

Video
ID : 1
Format : AVC
Format/Info : Advanced Video Codec
Format profile : Main@L5
Format settings : CABAC / 4 Ref Frames
Format settings, CABAC : Yes
Format settings, RefFrames : 4 frames
Codec ID : V_MPEG4/ISO/AVC
Duration : 2 h 9 min
Bit rate : 5 979 kb/s
Width : 1 280 pixels
Height : 692 pixels
Display aspect ratio : 1.85:1
Frame rate mode : Constant
Frame rate : 23.976 (24000/1001) FPS
Color space : YUV
Chroma subsampling : 4:2:0
Bit depth : 8 bits
Scan type : Progressive
Bits/(Pixel*Frame) : 0.282
Stream size : 5.20 GiB (78%)
Writing library : x264 core 142 r2479 dd79a61
Encoding settings : cabac=1 / ref=2 / deblock=1:0:0 / analyse=0x1:0x111 / me=hex / subme=4 / psy=1 / psy_rd=1.00:0.00 / mixed_ref=0 / me_range=16 / chroma_me=1 / trellis=1 / 8x8dct=0 / cqm=0 / deadzone=21,11 / fast_pskip=1 / chroma_qp_offset=0 / threads=12 / lookahead_threads=3 / sliced_threads=0 / nr=0 / decimate=1 / interlaced=0 / bluray_compat=0 / constrained_intra=0 / bframes=3 / b_pyramid=2 / b_adapt=1 / b_bias=0 / direct=1 / weightb=1 / open_gop=0 / weightp=1 / keyint=240 / keyint_min=24 / scenecut=40 / intra_refresh=0 / rc_lookahead=20 / rc=abr / mbtree=1 / bitrate=5979 / ratetol=1.0 / qcomp=0.60 / qpmin=0 / qpmax=69 / qpstep=4 / vbv_maxrate=135000 / vbv_bufsize=135000 / nal_hrd=none / filler=0 / ip_ratio=1.40 / aq=1:1.00
Default : Yes
Forced : No
Color range : Limited
Color primaries : BT.709
Transfer characteristics : BT.709
Matrix coefficients : BT.709

Audio
ID : 2
Format : DTS
Format/Info : Digital Theater Systems
Mode : 16
Format settings, Endianness : Big
Codec ID : A_DTS
Duration : 2 h 9 min
Bit rate mode : Constant
Bit rate : 1 509 kb/s
Channel(s) : 6 channels
Channel positions : Front: L C R, Side: L R, LFE
Sampling rate : 48.0 kHz
Frame rate : 93.750 FPS (512 SPF)
Bit depth : 24 bits
Compression mode : Lossy
Stream size : 1.36 GiB (20%)
Title : Surround
Language : English
Default : Yes
Forced : No

Menu
00:00:00.000 : :Chapter 1
00:03:38.676 : :Chapter 2
00:07:35.580 : :Chapter 3
00:11:46.664 : :Chapter 4
00:14:37.585 : :Chapter 5
00:20:42.783 : :Chapter 6
00:28:37.048 : :Chapter 7
00:35:45.935 : :Chapter 8
00:44:24.787 : :Chapter 9
00:49:17.454 : :Chapter 10
00:55:10.932 : :Chapter 11
01:00:53.483 : :Chapter 12
01:06:52.675 : :Chapter 13
01:12:10.451 : :Chapter 14
01:15:29.858 : :Chapter 15
01:19:04.781 : :Chapter 16
01:22:35.659 : :Chapter 17
01:25:43.513 : :Chapter 18
01:31:25.813 : :Chapter 19
01:35:29.181 : :Chapter 20
01:40:07.459 : :Chapter 21
01:46:27.422 : :Chapter 22
01:50:28.079 : :Chapter 23
01:52:14.477 : :Chapter 24
02:00:03.946 : :Chapter 25
02:05:44.203 : :Chapter 26





Rising Sun (1993)


Rising Sun (1993)


Rising Sun (1993)


Rising Sun (1993)


Rising Sun (1993)