ITV - River Monsters: Series 1 (2010)

Posted By: vivid23
ITV - River Monsters: Series 1 (2010)

ITV - River Monsters: Series 1 (2010)
DVDrip | 832x468 | MP4/x264 @ 1800 Kbps | 6x48mn | Audio: English AC3 128 kbps, 2 channels | Subs: None | 6x663 MB
Genre: Documentary

Extreme angler, Jeremy Wade, is on the hunt for freshwater fish with a taste for human flesh. This rip-roaring ride through the dark side of nature mixes action and adventure with mysteries, edge of the seat chase and a battle of wills between man and almost supernatural beasts. These killers lurk in the serpentine waterways of the planet, mooching murderously underwater, growing to truly awesome sizes. Like all the best horror movies the images are intense and immediate, the grade is gritty and real, together heightening the drama on screen. With graphics overlaying the live action, Jeremy illustrates to the viewer, using forensic methods, exactly how these river monsters are constructed to kill.

Part 1: Piranha
Extreme angler Jeremy Wade investigates the piranha's fearsome reputation. He travels to Brazil to swim in the Amazon with the fish and incites them into a feeding frenzy, before tracking down survivors and eyewitnesses of attacks.


Part 2: Amazon Flesh Eaters
A man swallowed whole by a fish. A body eaten alive from within. Another penetrated in a most unnatural fashion, and yet more with multiple stab wounds. Jeremy Wade is in pursuit of these notorious killers to discover the facts – to determine if their crimes are real and their methods as gruesome as reported.


Part 3: European Man Eater
Biologist and extreme angler Jeremy Wade travels to Germany to investigate tales of a beast that has been on the prowl in European waters for the past 700 years. His investigations take him to Spain, where he discovers first-hand that as a consequence of a science experiment gone wrong, the Wels catfish is growing to man-eating proportions and is capable of everything depicted in medieval records.


Part 4: Alligator Gar
America boasts a species of fish reputed to have committed a number of violent attacks on humans. The alligator gar is said to be as vicious as a shark and as large as an alligator. Biologist and extreme angler Jeremy Wade heads to Texas on a hunt to uncover the truth about the notorious creature.


Part 5: Amazon Assassins
The fossil record shows that the arapaima fish has roamed the waters of the Amazon River since the Jurassic age, and uses its bony tongue to crush prey against the roof of its mouth before swallowing. Biologist and extreme angler Jeremy Wade encountered the species once before and came out second best, so this time he is taking no chances as he investigates every aspect of this huge creature.


Part 6: Freshwater Shark
The bull shark can tolerate fresh water, allowing it to travel far up rivers and into close contact with humans. Biologist and extreme angler Jeremy Wade investigates the death of a man and a bloody attack on a racehorse as he tries to establish the truth about the notorious fish.

Video
ID : 1
Format : AVC
Format/Info : Advanced Video Codec
Format profile : High@L3.0
Format settings, CABAC : No
Format settings, ReFrames : 1 frame
Codec ID : avc1
Codec ID/Info : Advanced Video Coding
Duration : 48mn 2s
Bit rate mode : Variable
Bit rate : 1 800 Kbps
Width : 832 pixels
Height : 468 pixels
Display aspect ratio : 16:9
Frame rate mode : Constant
Frame rate : 25.000 fps
Color space : YUV
Chroma subsampling : 4:2:0
Bit depth : 8 bits
Scan type : Progressive
Bits/(Pixel*Frame) : 0.185
Stream size : 618 MiB (93%)
Encoded date : UTC 2013-01-26 22:00:59
Tagged date : UTC 2013-01-26 22:00:59

Audio
ID : 2
Format : AC-3
Format/Info : Audio Coding 3
Mode extension : CM (complete main)
Codec ID : ac-3
Duration : 48mn 2s
Bit rate mode : Constant
Bit rate : 128 Kbps
Channel(s) : 2 channels
Channel positions : Front: L R
Sampling rate : 48.0 KHz
Bit depth : 16 bits
Compression mode : Lossy
Stream size : 44.0 MiB (7%)
Encoded date : UTC 2013-01-26 22:00:59
Tagged date : UTC 2013-01-26 22:00:59


ITV - River Monsters: Series 1 (2010)

ITV - River Monsters: Series 1 (2010)


Feel free to contact me when links are dead