Rogue Warfare - Der Feind (2019)

Posted By: Barfin
1080p (FullHD) / BDRip IMDb
Rogue Warfare - Der Feind (2019)

Rogue Warfare - Der Feind (2019)
BDRip 1080p | MKV / AVC@4438 kb/s | 1920x808 | 1h 43mn
Deutsch (dubbed): DTS, 768 kb/s (6 ch) | Subtitles: Deutsch | 3.75 GB
Genre: Action

Große Nationen verbünden sich, um ein Team von Elite-Soldaten zusammenzustellen. Ihr Ziel: die Zerstörung der komplexen und gefährlichen Terror-Organisation BLACK MASK. Denn diese hat eine mörderische Bio-Waffe unter ihrer Kontrolle. Angeführt vom Kriegshelden Daniel muss das Team eine unmöglich erscheinende Mission annehmen und die tödliche Waffe der BLACK MASK unter seine Kontrolle bringen.


General
Unique ID : 176676087936837850013756612241189887708 (0x84EA93AA927A1DC1A853C8933129DEDC)
Complete name : F:\Rogue.Warfare.Der.Feind.2019.GERMAN.1080p.BluRay.x264.mkv
Format : Matroska
Format version : Version 4
File size : 3.75 GiB
Duration : 1 h 43 min
Overall bit rate : 5 212 kb/s
Encoded date : UTC 2019-11-08 16:51:25
Writing application : mkvmerge v7.8.0 ('River Man') 32bit built on Apr 3 2015 12:11:22
Writing library : libebml v1.3.1 + libmatroska v1.4.2

Video
ID : 1
Format : AVC
Format/Info : Advanced Video Codec
Format profile : High@L4.1
Format settings : CABAC / 5 Ref Frames
Format settings, CABAC : Yes
Format settings, ReFrames : 5 frames
Codec ID : V_MPEG4/ISO/AVC
Duration : 1 h 43 min
Bit rate : 4 438 kb/s
Width : 1 920 pixels
Height : 808 pixels
Display aspect ratio : 2.40:1
Frame rate mode : Constant
Frame rate : 23.976 (24000/1001) FPS
Color space : YUV
Chroma subsampling : 4:2:0
Bit depth : 8 bits
Scan type : Progressive
Bits/(Pixel*Frame) : 0.119
Stream size : 3.20 GiB (85%)
Writing library : x264 core 157 r2969 d4099dd
Encoding settings : cabac=1 / ref=5 / deblock=1:-1:-1 / analyse=0x3:0x133 / me=umh / subme=8 / psy=1 / psy_rd=1.00:0.15 / mixed_ref=1 / me_range=16 / chroma_me=1 / trellis=2 / 8x8dct=1 / cqm=0 / deadzone=21,11 / fast_pskip=0 / chroma_qp_offset=-3 / threads=16 / lookahead_threads=2 / sliced_threads=0 / nr=0 / decimate=1 / interlaced=0 / bluray_compat=0 / constrained_intra=0 / bframes=3 / b_pyramid=2 / b_adapt=1 / b_bias=0 / direct=3 / weightb=1 / open_gop=0 / weightp=2 / keyint=250 / keyint_min=23 / scenecut=40 / intra_refresh=0 / rc_lookahead=40 / rc=crf / mbtree=1 / crf=20.0 / qcomp=0.60 / qpmin=10 / qpmax=69 / qpstep=4 / ip_ratio=1.40 / aq=1:1.00
Language : English
Default : Yes
Forced : No

Audio
ID : 2
Format : DTS
Format/Info : Digital Theater Systems
Codec ID : A_DTS
Duration : 1 h 43 min
Bit rate mode : Constant
Bit rate : 768 kb/s
Channel(s) : 6 channels
Channel layout : C L R Ls Rs LFE
Sampling rate : 48.0 kHz
Frame rate : 93.750 FPS (512 SPF)
Bit depth : 24 bits
Compression mode : Lossy
Stream size : 566 MiB (15%)
Title : dts
Language : German
Default : Yes
Forced : No

Text #1
ID : 3
Format : VobSub
Muxing mode : zlib
Codec ID : S_VOBSUB
Codec ID/Info : Picture based subtitle format used on DVDs
Duration : 1 h 29 min
Bit rate : 4 188 b/s
Count of elements : 1102
Stream size : 2.70 MiB (0%)
Language : German
Default : No
Forced : No

Text #2
ID : 4
Format : UTF-8
Codec ID : S_TEXT/UTF8
Codec ID/Info : UTF-8 Plain Text
Duration : 1 h 17 min
Bit rate : 5 b/s
Count of elements : 117
Stream size : 3.28 KiB (0%)
Title : forced
Language : German
Default : Yes
Forced : No

Menu
00:00:00.000 : de:00:00:00.000
00:04:03.618 : de:00:04:03.618
00:13:15.545 : de:00:13:15.545
00:19:41.013 : de:00:19:41.013
00:32:12.681 : de:00:32:12.681
00:44:34.881 : de:00:44:34.881
00:49:37.349 : de:00:49:37.349
00:57:14.514 : de:00:57:14.514
01:01:21.761 : de:01:01:21.761
01:13:10.511 : de:01:13:10.511
01:24:47.291 : de:01:24:47.291
01:34:12.272 : de:01:34:12.272




Screenshots

Rogue Warfare - Der Feind (2019)

Rogue Warfare - Der Feind (2019)

Rogue Warfare - Der Feind (2019)