Subcategories

Rokugatsu no hebi / A Snake of June (2002)

Posted By: Rare-1
Rokugatsu no hebi / A Snake of June (2002)

Rokugatsu no hebi / A Snake of June (2002)
BRRip | MKV | 768 x 576 | AVC @ 2099 Kbps | 76 min | 1.37 Gb
Audio: #1 Japanese AC3 5.1 @ 256 Kbps #2 English AC3 2.0 @ 192 Kbps (Commentary) | Subs: English (embedded)
Genre: Drama, Mystery, Thriller | Japan

Rinku is a suicide-prevention counselor, living with her husband Shigehiko. He's older than she, scrubbing things constantly, sexually indifferent. They sleep apart. During Tokyo's rainy season, Iguchi, a photographer Rinku has counseled by phone, sends her pictures he has taken through her skylight: she's wearing a short skirt, masturbating. He offers her the negatives if she'll follow his instructions. She's humiliated and agrees. He tells her he's only giving her license to express her inner desires. He sends her into the night to walk on the wild side. Then, she asks a favor of him, and soon her husband receives phone calls and photographs. Where will this triangle lead?

IMDB 7.0/10 from 3036 users

Rokugatsu no hebi / A Snake of June (2002)


Rokugatsu no hebi / A Snake of June (2002)


Director: Shin'ya Tsukamoto
Writer: Shin'ya Tsukamoto
Actors: Asuka Kurosawa, Yûji Kôtari, Shin'ya Tsukamoto, Yukino Asai
Rated: R
Runtime: 76 min

When suicide hotline counselor Rinko (Asuka Kurosawa) receives explicit photos of herself from a mysterious caller, she is thrown into a depraved game of hidden fantasies and unrestrained sexual desire. As the voyeuristic stalker becomes determined to alter her passionless life, Rinko's compulsively clean husband Shigehiko (Yuji Koutari) attempts to hunt him down and the three disillusioned soul's paths will inevitably intertwine.

Tsukamoto's visual style is unmistakably daring and A Snake of June is no exception. Bathed in blue to suggest the unrelenting presence of water, the images created are painstakingly crafted and unforgettably bizarre. Close-ups of snails, drains, and circular windows mix with frantic shots of action and nightmarishly surreal dreams pepper reality. Far more linear than some of Tsukamoto's previous efforts, there's still plenty of hallucinatory imagery to comprehend, most memorably the sex show dream sequence accenting the themes of voyeurism and the contrast of viewing the organic through circles. Frenetic editing and dizzying camera-work also strive to keep this thriller from ever slowing down, and even during extended single shots on a stationary subject, the camera refuses to stay put, heightening the sense of voyeurism and paranoia. Even in the chapter breaks, Tsukamoto's maddeningly creative artistry is at work as curious symbols denote the passing of time and the gradual joining of figures.

To match the delirious visuals is a fantastically diverse array of sound effects and music from composer Chu Ishikawa. Unending rain echoes in every scene and foreboding strings alternate the mood from morose to morbid, yet there's always a calming satisfaction from the violins. Percussive tribalistic music heavy with the sounds of clanging metal enhances the tense scenes of violence and operatic tones waft through the more surrealistic segments.

With disturbing imagery reminiscent of David Lynch's Eraserhead (but with more meaningful parallels and less unexplained randomness), A Snake of June is a brilliant examination of voyeurism, buried desires, and suppressed passion through the looking glass of a twisted genius. Tsukamoto again proves he is the master of the sadistically surreal and has long since passed his American counterparts in both style and presentation.

Rokugatsu no hebi / A Snake of June (2002)



General
Unique ID : 178329286087019789168681998085566922555 (0x8628F8A0CCE525189D6C996583767F3B)
Complete name : E:\HDNLUF106\New folder (2)\Mass Folder Uploader\data/A Snake of June (2002) BRRip/shin'ya tsukamoto - (2002) a snake of june_.mkv
Format : Matroska
Format version : Version 2
File size : 1.37 GiB
Duration : 1h 16mn
Overall bit rate : 2 546 Kbps
Encoded date : UTC 2016-05-09 17:11:03
Writing application : mkvmerge v9.1.0 ('Little Earthquakes') 32bit
Writing library : libebml v1.3.3 + libmatroska v1.4.4
DURATION : 01:16:42.388000000
NUMBER_OF_FRAMES : 387
NUMBER_OF_BYTES : 10814
_STATISTICS_WRITING_APP : mkvmerge v9.1.0 ('Little Earthquakes') 32bit
_STATISTICS_WRITING_DATE_UTC : 2016-05-09 17:11:03
_STATISTICS_TAGS : BPS DURATION NUMBER_OF_FRAMES NUMBER_OF_BYTES

Video
ID : 1
Format : AVC
Format/Info : Advanced Video Codec
Format profile : High@L4.1
Format settings, CABAC : Yes
Format settings, ReFrames : 10 frames
Codec ID : V_MPEG4/ISO/AVC
Duration : 1h 16mn
Bit rate : 2 099 Kbps
Width : 768 pixels
Height : 576 pixels
Display aspect ratio : 4:3
Frame rate mode : Constant
Frame rate : 23.976 fps
Color space : YUV
Chroma subsampling : 4:2:0
Bit depth : 8 bits
Scan type : Progressive
Bits/(Pixel*Frame) : 0.198
Stream size : 1.10 GiB (80%)
Writing library : x264 core 148 r2692 64f4e24
Encoding settings : cabac=1 / ref=10 / deblock=1:-1:-1 / analyse=0x3:0x133 / me=umh / subme=11 / psy=1 / psy_rd=1.00:0.15 / mixed_ref=1 / me_range=32 / chroma_me=1 / trellis=2 / 8x8dct=1 / cqm=0 / deadzone=21,11 / fast_pskip=0 / chroma_qp_offset=-3 / threads=12 / lookahead_threads=3 / sliced_threads=0 / nr=0 / decimate=0 / interlaced=0 / bluray_compat=0 / constrained_intra=0 / bframes=11 / b_pyramid=2 / b_adapt=2 / b_bias=0 / direct=3 / weightb=1 / open_gop=0 / weightp=2 / keyint=240 / keyint_min=23 / scenecut=40 / intra_refresh=0 / rc_lookahead=60 / rc=2pass / mbtree=1 / bitrate=2099 / ratetol=3.0 / qcomp=0.60 / qpmin=0 / qpmax=69 / qpstep=4 / cplxblur=20.0 / qblur=0.5 / vbv_maxrate=62500 / vbv_bufsize=78125 / nal_hrd=none / filler=0 / ip_ratio=1.40 / aq=1:1.00
Language : English
Default : Yes
Forced : No
Color range : Limited
Matrix coefficients : BT.709
DURATION : 01:16:54.986000000
NUMBER_OF_FRAMES : 110649
NUMBER_OF_BYTES : 1209397664
_STATISTICS_WRITING_APP : mkvmerge v9.1.0 ('Little Earthquakes') 32bit
_STATISTICS_WRITING_DATE_UTC : 2016-05-09 17:11:03
_STATISTICS_TAGS : BPS DURATION NUMBER_OF_FRAMES NUMBER_OF_BYTES

Audio #1
ID : 2
Format : AC-3
Format/Info : Audio Coding 3
Mode extension : CM (complete main)
Format settings, Endianness : Big
Codec ID : A_AC3
Duration : 1h 16mn
Bit rate mode : Constant
Bit rate : 256 Kbps
Channel(s) : 6 channels
Channel positions : Front: L C R, Side: L R, LFE
Sampling rate : 48.0 KHz
Compression mode : Lossy
Stream size : 141 MiB (10%)
Language : Japanese
Default : Yes
Forced : No

Audio #2
ID : 3
Format : AC-3
Format/Info : Audio Coding 3
Mode extension : CM (complete main)
Format settings, Endianness : Big
Codec ID : A_AC3
Duration : 1h 16mn
Bit rate mode : Constant
Bit rate : 192 Kbps
Channel(s) : 2 channels
Channel positions : Front: L R
Sampling rate : 48.0 KHz
Compression mode : Lossy
Stream size : 106 MiB (8%)
Title : Commentary
Language : English
Default : No
Forced : No

Text
ID : 4
Format : UTF-8
Codec ID : S_TEXT/UTF8
Codec ID/Info : UTF-8 Plain Text
Language : English
Default : Yes
Forced : No


Many Thanks to Original uploader.


For More Rare Movies Check out my blog!


Download Links :

No Mirrors Please
Sample
http://nitroflare.com/view/AA2CA401C6F3934/sample.mkv