Rush Hour (1998-2007) Complete Collection

Posted By: NaVi7
Rush Hour (1998-2007) Complete Collection

Rush Hour (1998-2007) Complete Collection
BDRip | AVI / XVID | 4h 39mn | English | Subtitles: Romanian | 4.11 GB
Genre: Action | Comedy | Crime | Thriller


Rush Hour (1998-2007) Complete Collection

Rush Hour (1998)
BDRip | AVI / XVID, 1607 Kbps | 720x304 | 1h 37mn | 1.37 GB
English: AC3, 384 Kbps (6 ch) | Subtitles: Romanian
Genre: Action | Comedy | Crime | Thriller

Cultures clash and tempers flares as the two cops named Detective Inspector Lee a Hong Kong Detective and Detective James Carter FBI, a big-mouthed work-alone Los Angeles cop who are from different worlds discovers one thing in common: they can't stand each other. With time running out, they must join forces to catch the criminals and save the eleven-year-old Chinese girl of the Chinese consul named Soo Yung.

imdb - 6 wins & 7 nominations.

General
Complete name : Rush.Hour.1998.BRRip.XviD.AC3.RoSubbed-playXD.avi
Format : AVI
Format/Info : Audio Video Interleave
File size : 1.37 GiB
Duration : 1h 37mn
Overall bit rate : 1 999 Kbps

Video
ID : 0
Format : MPEG-4 Visual
Format profile : Advanced Simple@L5
Format settings, BVOP : 2
Format settings, QPel : No
Format settings, GMC : No warppoints
Format settings, Matrix : Default (H.263)
Codec ID : XVID
Codec ID/Hint : XviD
Duration : 1h 37mn
Bit rate : 1 607 Kbps
Width : 720 pixels
Height : 304 pixels
Display aspect ratio : 2.35:1
Frame rate : 23.976 fps
Color space : YUV
Chroma subsampling : 4:2:0
Bit depth : 8 bits
Scan type : Progressive
Compression mode : Lossy
Bits/(Pixel*Frame) : 0.306
Stream size : 1.10 GiB (80%)
Writing library : XviD 1.2.1 (UTC 2008-12-04)

Audio
ID : 1
Format : AC-3
Format/Info : Audio Coding 3
Mode extension : CM (complete main)
Format settings, Endianness : Big
Codec ID : 2000
Duration : 1h 37mn
Bit rate mode : Constant
Bit rate : 384 Kbps
Channel(s) : 6 channels
Channel positions : Front: L C R, Side: L R, LFE
Sampling rate : 48.0 KHz
Bit depth : 16 bits
Compression mode : Lossy
Stream size : 269 MiB (19%)
Alignment : Aligned on interleaves
Interleave, duration : 64 ms (1.53 video frames)
Interleave, preload duration : 192 ms
Title : rush.hour.1998.720p.bluray.x264-leverage (1) - [1] English_audio

Text
ID : 2
Duration : 1h 37mn
Bit rate : 120 bps
Stream size : 86.0 KiB (0%)
Title : rush.hour.1998.720p.bluray.x264-leverage (1) - [2] Romanian
Rush Hour (1998-2007) Complete Collection

Rush Hour 2 (2001)
BDRip | AVI / XVID, 1781 Kbps | 720x288 | 1h 30mn | 1.37 GB
English: AC3, 384 Kbps (2 ch) | Subtitles: Romanian
Genre: Action | Comedy | Crime | Thriller

It's vacation time for Det. James Carter and he finds himself alongside Det. Lee in Hong Kong wishing for more excitement. While Carter wants to party and meet the ladies, Lee is out to track down a Triad gang lord who may be responsible for killing two men at the American Embassy. Things get complicated as the pair stumble onto a counterfeiting plot by L.A. crime boss Steven Reign and Triad Ricky Tan, an ex-cop who played a mysterious part in the death of Det. Lee's father. Throw in a power struggle between Tan and the gorgeous but dangerous Hu Li and the boys are soon up to their necks in fist fights and life-threatening situations. A trip back to the U.S. may provide the answers about the bombing, the counterfeiting, and the true allegiance of sexy customs agent Isabella. Then again, it may turn up more excitement than Carter was looking for during his vacation.

imdb - 10 wins & 18 nominations.

General
Complete name : Rush.Hour.2.2001.BRRip.XviD.AC3.RoSubbed-playXD.avi
Format : AVI
Format/Info : Audio Video Interleave
File size : 1.37 GiB
Duration : 1h 30mn
Overall bit rate : 2 173 Kbps

Video
ID : 0
Format : MPEG-4 Visual
Format profile : Advanced Simple@L5
Format settings, BVOP : 2
Format settings, QPel : No
Format settings, GMC : No warppoints
Format settings, Matrix : Default (H.263)
Codec ID : XVID
Codec ID/Hint : XviD
Duration : 1h 30mn
Bit rate : 1 781 Kbps
Width : 720 pixels
Height : 288 pixels
Display aspect ratio : 2.500
Frame rate : 23.976 fps
Color space : YUV
Chroma subsampling : 4:2:0
Bit depth : 8 bits
Scan type : Progressive
Compression mode : Lossy
Bits/(Pixel*Frame) : 0.358
Stream size : 1.12 GiB (82%)
Writing library : XviD 1.2.1 (UTC 2008-12-04)

Audio
ID : 1
Format : AC-3
Format/Info : Audio Coding 3
Mode extension : CM (complete main)
Format settings, Endianness : Big
Codec ID : 2000
Duration : 1h 30mn
Bit rate mode : Constant
Bit rate : 384 Kbps
Channel(s) : 2 channels
Channel positions : Front: L R
Sampling rate : 48.0 KHz
Bit depth : 16 bits
Compression mode : Lossy
Stream size : 247 MiB (18%)
Alignment : Aligned on interleaves
Interleave, duration : 64 ms (1.53 video frames)
Interleave, preload duration : 192 ms
Title : rh2 (1) - [1]_audio

Text
ID : 2
Duration : 1h 30mn
Bit rate : 125 bps
Stream size : 82.1 KiB (0%)
Title : rh2 (1) - [2] Romanian
Rush Hour (1998-2007) Complete Collection

Rush Hour 3 (2007)
BDRip | AVI / XVID, 1763 Kbps | 720x304 | 1h 30mn | 1.37 GB
English: AC3, 384 Kbps (6 ch) | Subtitles: Romanian
Genre: Action | Comedy | Crime | Thriller

After an attempted assassination on Ambassador Han, Inspector Lee and Detective Carter are back in action as they head to Paris to protect a French woman with knowledge of the Triads' secret leaders. Lee also holds secret meetings with a United Nations authority, but his personal struggles with a Chinese criminal mastermind named Kenji, which reveals that it's Lee's long-lost…brother. But their race will take them across the city, from the depths of the Paris underground to the breathtaking heights of the Eiffel Tower, as they fight to outrun the world's most deadly criminals and save the day.

imdb - 8 nominations.

General
Complete name : Rush.Hour.3.2007.BRRip.XviD.AC3.RoSubbed-playXD.avi
Format : AVI
Format/Info : Audio Video Interleave
File size : 1.37 GiB
Duration : 1h 30mn
Overall bit rate : 2 155 Kbps

Video
ID : 0
Format : MPEG-4 Visual
Format profile : Advanced Simple@L5
Format settings, BVOP : 2
Format settings, QPel : No
Format settings, GMC : No warppoints
Format settings, Matrix : Default (H.263)
Codec ID : XVID
Codec ID/Hint : XviD
Duration : 1h 30mn
Bit rate : 1 763 Kbps
Width : 720 pixels
Height : 304 pixels
Display aspect ratio : 2.35:1
Frame rate : 23.976 fps
Color space : YUV
Chroma subsampling : 4:2:0
Bit depth : 8 bits
Scan type : Progressive
Compression mode : Lossy
Bits/(Pixel*Frame) : 0.336
Stream size : 1.12 GiB (82%)
Writing library : XviD 1.2.1 (UTC 2008-12-04)

Audio
ID : 1
Format : AC-3
Format/Info : Audio Coding 3
Mode extension : CM (complete main)
Format settings, Endianness : Big
Codec ID : 2000
Duration : 1h 30mn
Bit rate mode : Constant
Bit rate : 384 Kbps
Channel(s) : 6 channels
Channel positions : Front: L C R, Side: L R, LFE
Sampling rate : 48.0 KHz
Bit depth : 16 bits
Compression mode : Lossy
Stream size : 249 MiB (18%)
Alignment : Aligned on interleaves
Interleave, duration : 64 ms (1.53 video frames)
Interleave, preload duration : 192 ms
Title : rush.hour.3.2007.720p.bluray.dts.x264-hv (1) - [0] English_audio

Text
ID : 2
Duration : 1h 30mn
Bit rate : 115 bps
Stream size : 76.6 KiB (0%)
Title : rush.hour.3.2007.720p.bluray.dts.x264-hv (1) - [2] Romanian

screenshots:

Rush Hour (1998-2007) Complete Collection

Rush Hour (1998-2007) Complete Collection

Rush Hour (1998-2007) Complete Collection


Welcome to My Blog!

Subscribe to My Newsletter!

No more mirrors!

If you want to download it, but found out that links are dead, just leave a comment or PM me!
Download Links:
Uploaded | Rapidgator - Rush Hour (1998)
Uploaded | Rapidgator - Rush Hour 2 (2001)
Uploaded | Rapidgator - Rush Hour 3 (2007)
Links to RapidGator and Uploaded are inside the html file. Download the file and open it in your browser.