Tags
Language
Tags

The Shanghai Job / S.M.A.R.T. Chase (2017)

Posted By: Without
1080p (FullHD) / BDRip IMDb
The Shanghai Job / S.M.A.R.T. Chase (2017)

The Shanghai Job / S.M.A.R.T. Chase (2017)
BRRip | AVI | 720x304 | XviD@1696 kb/s | English AC3@448 kb/s
Subs: English (srt) When needed | 6 channels | 1 h 33 min | 1.41 GB
BDRip 1080p | MKV | 1920x800 | AVC@14.3 Mb/s | English DTS@1509 kb/s
Subs: English | 6 channels | 1 h 33 min | 10.2 GB
Genre: Action, Adventure, Crime

A washed-up private security agent has to escort a valuable Chinese antique out of Shanghai but is ambushed en route.



General
The Shanghai Job.2017.BDRip.XviD.AC3-EVO.avi
Format : AVI
Format/Info : Audio Video Interleave
File size : 1.41 GiB
Duration : 1 h 33 min
Overall bit rate : 2 153 kb/s
Writing library : VirtualDub build 32593/release

Video
ID : 0
Format : MPEG-4 Visual
Format profile : Advanced Simple@L5
Format settings, BVOP : 2
Format settings, QPel : No
Format settings, GMC : No warppoints
Format settings, Matrix : Default (H.263)
Muxing mode : Packed bitstream
Codec ID : XVID
Codec ID/Hint : XviD
Duration : 1 h 33 min
Bit rate : 1 696 kb/s
Width : 720 pixels
Height : 304 pixels
Display aspect ratio : 2.35:1
Frame rate : 24.000 FPS
Color space : YUV
Chroma subsampling : 4:2:0
Bit depth : 8 bits
Scan type : Progressive
Compression mode : Lossy
Bits/(Pixel*Frame) : 0.323
Stream size : 1.11 GiB (79%)
Writing library : XviD 66

Audio
ID : 1
Format : AC-3
Format/Info : Audio Coding 3
Mode extension : CM (complete main)
Format settings, Endianness : Big
Codec ID : 2000
Duration : 1 h 33 min
Bit rate mode : Constant
Bit rate : 448 kb/s
Channel(s) : 6 channels
Channel positions : Front: L C R, Side: L R, LFE
Sampling rate : 48.0 kHz
Frame rate : 31.250 FPS (1536 spf)
Bit depth : 16 bits
Compression mode : Lossy
Stream size : 300 MiB (21%)
Alignment : Aligned on interleaves
Interleave, duration : 42 ms (1.00 video frame)
Interleave, preload duration : 512 ms

General
The Shanghai Job.2017.1080p.Bluray.X264-EVO\The Shanghai Job.2017.1080p.Bluray.X264-EVO.mkv
Format : Matroska
Format version : Version 4 / Version 2
File size : 10.2 GiB
Duration : 1 h 33 min
Overall bit rate : 15.5 Mb/s
Movie name : EVO
Encoded date : UTC 2018-04-26 17:58:37
Writing application : mkvmerge v6.7.0 ('Back to the Ground') 64bit built on Jan 8 2014 15:10:52
Writing library : libebml v1.3.0 + libmatroska v1.4.1

Video
ID : 2
Format : AVC
Format/Info : Advanced Video Codec
Format profile : High@L4.1
Format settings, CABAC : Yes
Format settings, ReFrames : 4 frames
Codec ID : V_MPEG4/ISO/AVC
Duration : 1 h 33 min
Bit rate : 14.3 Mb/s
Width : 1 920 pixels
Height : 800 pixels
Display aspect ratio : 2.40:1
Frame rate mode : Constant
Frame rate : 24.000 FPS
Color space : YUV
Chroma subsampling : 4:2:0
Bit depth : 8 bits
Scan type : Progressive
Bits/(Pixel*Frame) : 0.387
Stream size : 8.96 GiB (88%)
Writing library : x264 core 130 r2273 b3065e6
Encoding settings : cabac=1 / ref=1 / deblock=1:0:0 / analyse=0x3:0x113 / me=hex / subme=2 / psy=1 / psy_rd=1.00:0.00 / mixed_ref=0 / me_range=16 / chroma_me=1 / trellis=0 / 8x8dct=1 / cqm=0 / deadzone=21,11 / fast_pskip=1 / chroma_qp_offset=0 / threads=6 / lookahead_threads=2 / sliced_threads=0 / nr=0 / decimate=1 / interlaced=0 / bluray_compat=0 / constrained_intra=0 / bframes=3 / b_pyramid=2 / b_adapt=1 / b_bias=0 / direct=1 / weightb=1 / open_gop=0 / weightp=1 / keyint=240 / keyint_min=24 / scenecut=40 / intra_refresh=0 / rc_lookahead=10 / rc=abr / mbtree=1 / bitrate=14251 / ratetol=1.0 / qcomp=0.60 / qpmin=0 / qpmax=69 / qpstep=4 / vbv_maxrate=62500 / vbv_bufsize=78125 / nal_hrd=none / ip_ratio=1.40 / aq=1:1.00
Language : English
Default : Yes
Forced : No
Color range : Limited
Color primaries : BT.709
Transfer characteristics : BT.709
Matrix coefficients : BT.709

Audio
ID : 3
Format : DTS
Format/Info : Digital Theater Systems
Mode : 16
Format settings, Endianness : Big
Codec ID : A_DTS
Duration : 1 h 33 min
Bit rate mode : Constant
Bit rate : 1 509 kb/s
Channel(s) : 6 channels
Channel positions : Front: L C R, Side: L R, LFE
Sampling rate : 48.0 kHz
Frame rate : 93.750 FPS (512 spf)
Bit depth : 24 bits
Compression mode : Lossy
Stream size : 1 010 MiB (10%)
Language : English
Default : Yes
Forced : No

Text
ID : 1
Format : UTF-8
Codec ID : S_TEXT/UTF8
Codec ID/Info : UTF-8 Plain Text
Language : English
Default : Yes
Forced : No

Menu
00:00:00.000 : en:Chapter 1
00:01:30.000 : en:Chapter 2
00:04:00.000 : en:Chapter 3
00:08:09.041 : en:Chapter 4
00:13:02.083 : en:Chapter 5
00:17:21.916 : en:Chapter 6
00:23:41.625 : en:Chapter 7
00:26:54.375 : en:Chapter 8
00:32:39.500 : en:Chapter 9
00:38:03.791 : en:Chapter 10
00:42:24.291 : en:Chapter 11
00:47:41.541 : en:Chapter 12
00:51:03.875 : en:Chapter 13
00:56:56.541 : en:Chapter 14
01:03:29.833 : en:Chapter 15
01:06:57.291 : en:Chapter 16
01:11:23.500 : en:Chapter 17
01:15:56.166 : en:Chapter 18
01:22:09.791 : en:Chapter 19
01:29:13.333 : en:Chapter 20


BRRip Screenshots

The Shanghai Job / S.M.A.R.T. Chase (2017)

The Shanghai Job / S.M.A.R.T. Chase (2017)

The Shanghai Job / S.M.A.R.T. Chase (2017)


BDRip 1080p Screenshots

The Shanghai Job / S.M.A.R.T. Chase (2017)

The Shanghai Job / S.M.A.R.T. Chase (2017)

The Shanghai Job / S.M.A.R.T. Chase (2017)


Come Visit My Blog (•‿•)