SES - NASA UHD Trailer (2016)

Posted By: Tutorial
SES - NASA UHD Trailer (2016)

SES - NASA UHD Trailer (2016)
2160p UHD | 3840 x 2160 | .MKV/AVC @ 14.3 Mbps | 7 min 23 s | English AAC 157 Kbps, 2 channels | 761 MB
720p UHD | 1280 x 720 | .MP4/AVC @ 2238 Kbps | 7 min 23 s | English AAC 157 Kbps, 2 channels | 127 MB
Genre: Documentary, Science

NASA TV UHD is an ambient video channel highlighting beautiful imagery from the space program, leveraging the latest 4K ultra-high definition (UHD) technologies. Utilizing an end-to-end UHD video delivery system from Harmonic, NASA can deliver live and linear 2160p60 video content, enabling consumers to enjoy crystal-clear footage on a wide range of television and IP-connected devices. NASA TV UHD is currently available on the Galaxy 13 satellite, with a North American footprint.
also You can look my other last: Science-posts

General
Unique ID : 252627779459586531145402796611562445740 (0xBE0E572C9D8BF8368B3B7CC62C6D1BAC)
Complete name : SES.NASA.UHD.Trailer.2160p.mkv
Format : Matroska
Format version : Version 4 / Version 2
File size : 761 MiB
Duration : 7 min 23 s
Overall bit rate : 14.4 Mb/s
Movie name : NASA UHD Trailer [MVGroup]
Encoded date : UTC 2017-07-13 07:02:36
Writing application : mkvmerge v13.0.0 ('The Juggler') 64bit
Writing library : libebml v1.3.4 + libmatroska v1.4.5

Video
ID : 1
Format : AVC
Format/Info : Advanced Video Codec
Format profile : High@L5.1
Format settings, CABAC : No
Format settings, ReFrames : 4 frames
Codec ID : V_MPEG4/ISO/AVC
Duration : 7 min 23 s
Bit rate : 14.3 Mb/s
Width : 3 840 pixels
Height : 2 160 pixels
Display aspect ratio : 16:9
Frame rate mode : Constant
Frame rate : 25.000 FPS
Color space : YUV
Chroma subsampling : 4:2:0
Bit depth : 8 bits
Scan type : Progressive
Bits/(Pixel*Frame) : 0.069
Stream size : 753 MiB (99%)
Writing library : x264 core 152 r2851 MVGroup
Encoding settings : cabac=0 / ref=3 / deblock=1:0:0 / analyse=0x3:0x113 / me=umh / subme=9 / psy=1 / psy_rd=1.00:0.00 / mixed_ref=1 / me_range=64 / chroma_me=1 / trellis=1 / 8x8dct=1 / cqm=0 / deadzone=21,11 / fast_pskip=0 / chroma_qp_offset=-2 / threads=3 / lookahead_threads=1 / sliced_threads=0 / nr=0 / decimate=1 / interlaced=0 / bluray_compat=0 / constrained_intra=0 / bframes=5 / b_pyramid=2 / b_adapt=2 / b_bias=0 / direct=1 / weightb=1 / open_gop=0 / weightp=2 / keyint=250 / keyint_min=25 / scenecut=40 / intra_refresh=0 / rc_lookahead=40 / rc=crf / mbtree=1 / crf=23.0 / qcomp=0.60 / qpmin=0 / qpmax=69 / qpstep=4 / ip_ratio=1.40 / aq=1:1.00
Language : English
Default : Yes
Forced : No
Color range : Limited
Color primaries : BT.709
Transfer characteristics : BT.709
Matrix coefficients : BT.709

Audio
ID : 2
Format : AAC
Format/Info : Advanced Audio Codec
Format profile : LC
Codec ID : A_AAC
Duration : 7 min 22 s
Bit rate : 157 kb/s
Channel(s) : 2 channels
Channel positions : Front: L R
Sampling rate : 48.0 kHz
Frame rate : 46.875 FPS (1024 spf)
Compression mode : Lossy
Delay relative to video : 9 ms
Stream size : 8.28 MiB (1%)
Language : English
Default : Yes
Forced : No

General
Complete name : SES.NASA.UHD.Trailer.720p.mp4
Format : MPEG-4
Format profile : Base Media
Codec ID : isom (isom)
File size : 127 MiB
Duration : 7 min 23 s
Overall bit rate mode : Variable
Overall bit rate : 2 401 kb/s
Movie name : NASA UHD Trailer
Encoded date : UTC 2017-07-12 23:26:50
Tagged date : UTC 2017-07-12 23:26:50

Video
ID : 1
Format : HEVC
Format/Info : High Efficiency Video Coding
Format profile : Main 10@L4@Main
Codec ID : hvc1
Codec ID/Info : High Efficiency Video Coding
Duration : 7 min 23 s
Bit rate : 2 238 kb/s
Maximum bit rate : 31.1 Mb/s
Width : 1 280 pixels
Height : 720 pixels
Display aspect ratio : 16:9
Frame rate mode : Constant
Frame rate : 50.000 FPS
Color space : YUV
Chroma subsampling : 4:2:0
Bit depth : 10 bits
Bits/(Pixel*Frame) : 0.049
Stream size : 118 MiB (93%)
Title : hevc@GPAC0.7.2-DEV-rev151-gf1caeb7-master
Writing library : x265 2.4+14-[MVGroup]:[Windows][GCC 6.3.0][64 bit] 10bit: KG7x [x265.ru]
Encoding settings : cpuid=1310975 / frame-threads=1 / numa-pools=2 / wpp / no-pmode / no-pme / no-psnr / no-ssim / log-level=2 / input-csp=1 / input-res=1280x720 / interlace=0 / total-frames=22150 / level-idc=0 / high-tier=1 / uhd-bd=0 / ref=3 / no-allow-non-conformance / no-repeat-headers / annexb / no-aud / no-hrd / info / hash=0 / no-temporal-layers / no-open-gop / min-keyint=50 / keyint=500 / bframes=5 / b-adapt=2 / b-pyramid / bframe-bias=0 / rc-lookahead=20 / lookahead-slices=4 / scenecut=40 / no-intra-refresh / ctu=64 / min-cu-size=8 / no-rect / no-amp / max-tu-size=32 / tu-inter-depth=1 / tu-intra-depth=1 / limit-tu=0 / rdoq-level=0 / dynamic-rd=0.00 / no-ssim-rd / signhide / no-tskip / nr-intra=0 / nr-inter=0 / no-constrained-intra / strong-intra-smoothing / max-merge=2 / limit-refs=3 / no-limit-modes / me=1 / subme=2 / merange=57 / temporal-mvp / weightp / weightb / no-analyze-src-pics / deblock=0:0 / sao / no-sao-non-deblock / rd=3 / no-early-skip / rskip / no-fast-intra / no-tskip-fast / no-cu-lossless / no-b-intra / rdpenalty=0 / psy-rd=2.00 / psy-rdoq=0.00 / no-rd-refine / analysis-mode=0 / no-lossless / cbqpoffs=0 / crqpoffs=0 / rc=crf / crf=20.0 / qcomp=0.60 / qpstep=4 / stats-write=0 / stats-read=0 / ipratio=1.40 / pbratio=1.15 / aq-mode=1 / aq-strength=1.00 / cutree / zone-count=0 / no-strict-cbr / qg-size=32 / no-rc-grain / qpmax=69 / qpmin=0 / sar=0 / overscan=0 / videoformat=5 / range=0 / colorprim=1 / transfer=1 / colormatrix=1 / chromaloc=0 / display-window=0 / max-cll=0,0 / min-luma=0 / max-luma=1023 / log2-max-poc-lsb=8 / vui-timing-info / vui-hrd-info / slices=1 / opt-qp-pps / opt-ref-list-length-pps / no-multi-pass-opt-rps / scenecut-bias=0.05 / no-opt-cu-delta-qp / no-aq-motion / no-hdr / no-hdr-opt / no-dhdr10-opt / refine-level=5 / no-limit-sao / ctu-info=0
Encoded date : UTC 2017-07-12 23:25:13
Tagged date : UTC 2017-07-12 23:26:51
Color range : Limited
Color primaries : BT.709
Transfer characteristics : BT.709
Matrix coefficients : BT.709

Audio
ID : 2
Format : AAC
Format/Info : Advanced Audio Codec
Format profile : LC
Codec ID : 40
Duration : 7 min 22 s
Source duration : 7 min 23 s
Bit rate mode : Variable
Bit rate : 157 kb/s
Maximum bit rate : 171 kb/s
Channel(s) : 2 channels
Channel positions : Front: L R
Sampling rate : 48.0 kHz
Frame rate : 46.875 FPS (1024 spf)
Compression mode : Lossy
Stream size : 8.28 MiB (7%)
Source stream size : 8.28 MiB (7%)
Title : English
Language : English
Encoded date : UTC 2017-07-12 21:21:48
Tagged date : UTC 2017-07-12 23:26:51
Screenshots 2160p UHD

SES - NASA UHD Trailer (2016)

SES - NASA UHD Trailer (2016)

Screenshots 720p UHD

SES - NASA UHD Trailer (2016)

SES - NASA UHD Trailer (2016)

Welcome to my blog - daily update!

SES - NASA UHD Trailer (2016)