Tags
Language
Tags

The Shanghai Job / S.M.A.R.T. Chase (2017)

Posted By: Without
1080p (FullHD) / WEB-DL IMDb
The Shanghai Job / S.M.A.R.T. Chase (2017)

The Shanghai Job / S.M.A.R.T. Chase (2017)
HDRip | AVI | 720x304 | XviD@1734 kb/s | English AC3@384 kb/s
Subs: English (.srt) | 6 channels | 1 h 33 min | 1.39 GB
WEB-DL 1080p | MKV | 1916x800 | AVC@4518 kb/s | English AC3@384 kb/s
6 channels | 1 h 33 min | 3.21 GB
Genre: Action, Adventure, Crime

A washed-up private security agent has to escort a valuable Chinese antique out of Shanghai but is ambushed en route.



General
The Shanghai Job.2017.HDRip.XviD.AC3-EVO.avi
Format : AVI
Format/Info : Audio Video Interleave
File size : 1.39 GiB
Duration : 1 h 33 min
Overall bit rate : 2 127 kb/s
Writing library : VirtualDub build 32593/release

Video
ID : 0
Format : MPEG-4 Visual
Format profile : Advanced Simple@L5
Format settings, BVOP : 2
Format settings, QPel : No
Format settings, GMC : No warppoints
Format settings, Matrix : Default (H.263)
Muxing mode : Packed bitstream
Codec ID : XVID
Codec ID/Hint : XviD
Duration : 1 h 33 min
Bit rate : 1 734 kb/s
Width : 720 pixels
Height : 304 pixels
Display aspect ratio : 2.35:1
Frame rate : 23.976 (24000/1001) FPS
Color space : YUV
Chroma subsampling : 4:2:0
Bit depth : 8 bits
Scan type : Progressive
Compression mode : Lossy
Bits/(Pixel*Frame) : 0.330
Stream size : 1.14 GiB (82%)
Writing library : XviD 66

Audio
ID : 1
Format : AC-3
Format/Info : Audio Coding 3
Mode extension : CM (complete main)
Format settings, Endianness : Big
Codec ID : 2000
Duration : 1 h 33 min
Bit rate mode : Constant
Bit rate : 384 kb/s
Channel(s) : 6 channels
Channel positions : Front: L C R, Side: L R, LFE
Sampling rate : 48.0 kHz
Frame rate : 31.250 FPS (1536 spf)
Bit depth : 16 bits
Compression mode : Lossy
Stream size : 258 MiB (18%)
Alignment : Aligned on interleaves
Interleave, duration : 42 ms (1.00 video frame)
Interleave, preload duration : 512 ms

General
The Shanghai Job 2017 1080p WEB-DL DD5 1 H264-CMRG.mkv
Format : Matroska
Format version : Version 4 / Version 2
File size : 3.21 GiB
Duration : 1 h 33 min
Overall bit rate : 4 904 kb/s
Encoded date : UTC 2018-01-29 00:43:57
Writing application : mkvmerge v17.0.0 ('Be Ur Friend') 64-bit
Writing library : libebml v1.3.5 + libmatroska v1.4.8

Video
ID : 1
Format : AVC
Format/Info : Advanced Video Codec
Format profile : High@L4
Format settings, CABAC : Yes
Format settings, ReFrames : 5 frames
Codec ID : V_MPEG4/ISO/AVC
Duration : 1 h 33 min
Bit rate : 4 518 kb/s
Width : 1 916 pixels
Height : 800 pixels
Display aspect ratio : 2.40:1
Frame rate mode : Constant
Frame rate : 23.976 (24000/1001) FPS
Color space : YUV
Chroma subsampling : 4:2:0
Bit depth : 8 bits
Scan type : Progressive
Bits/(Pixel*Frame) : 0.123
Stream size : 2.96 GiB (92%)
Language : English
Default : Yes
Forced : No
Color range : Limited
Color primaries : BT.709
Transfer characteristics : BT.709
Matrix coefficients : BT.709

Audio
ID : 2
Format : AC-3
Format/Info : Audio Coding 3
Mode extension : CM (complete main)
Format settings, Endianness : Big
Codec ID : A_AC3
Duration : 1 h 33 min
Bit rate mode : Constant
Bit rate : 384 kb/s
Channel(s) : 6 channels
Channel positions : Front: L C R, Side: L R, LFE
Sampling rate : 48.0 kHz
Frame rate : 31.250 FPS (1536 spf)
Bit depth : 16 bits
Compression mode : Lossy
Delay relative to video : -42 ms
Stream size : 258 MiB (8%)
Language : English
Default : Yes
Forced : No

Menu
00:00:00.000 : en:Chapter 1
00:17:31.176 : en:Chapter 2
00:32:44.881 : en:Chapter 3
00:54:13.336 : en:Chapter 4
01:15:04.503 : en:Chapter 5
01:29:26.781 : en:Chapter 6


HDRip Screenshots

The Shanghai Job / S.M.A.R.T. Chase (2017)

The Shanghai Job / S.M.A.R.T. Chase (2017)

The Shanghai Job / S.M.A.R.T. Chase (2017)


WEB-DL 1080p Screenshots

The Shanghai Job / S.M.A.R.T. Chase (2017)

The Shanghai Job / S.M.A.R.T. Chase (2017)

The Shanghai Job / S.M.A.R.T. Chase (2017)


Come Visit My Blog (•‿•)