National Geographic - Save the Titanic with Bob Ballard (2013)

Posted By: ParRus
National Geographic - Save the Titanic with Bob Ballard (2013)

National Geographic - Save the Titanic with Bob Ballard (2013)
HDTV | English | MKV | 1280 x 720 | AVC ~2643 Kbps | 25 fps
AC-3 | 384 kbps | 48.0 KHz | 2 channels | 00:44:59 | 994 MB
Genre: Documentary

Bob Ballard goes onsite with ROVs capable of retrieving personal effects from the wreck, which are then returned to surviving family members.
General
Complete name : National.Geographic.Bob.Ballard.Save.The.Titanic.mkv
Format : Matroska
Format version : Version 2
File size : 994 MiB
Duration : 44mn 59s
Overall bit rate : 3 089 Kbps
Encoded date : UTC 2013-02-17 11:08:25
Writing application : mkvmerge v5.8.0 ('No Sleep / Pillow') built on Sep 2 2012 15:37:04
Writing library : libebml v1.2.3 + libmatroska v1.3.0
Video #1
ID : 1
Format : AVC
Format/Info : Advanced Video Codec
Format profile : High@L4.1
Format settings, CABAC : Yes
Format settings, ReFrames : 5 frames
Codec ID : V_MPEG4/ISO/AVC
Duration : 44mn 59s
Bit rate : 2 643 Kbps
Width : 1 280 pixels
Height : 720 pixels
Display aspect ratio : 16:9
Frame rate : 25.000 fps
Color space : YUV
Chroma subsampling : 4:2:0
Bit depth : 8 bits
Scan type : Progressive
Bits/(Pixel*Frame) : 0.115
Stream size : 851 MiB (86%)
Writing library : x264 core 129 r2245kMod bc13772
Encoding settings : cabac=1 / ref=5 / deblock=1:-1:-1 / analyse=0x3:0x113 / me=umh / subme=8 / psy=1 / fade_compensate=0.00 / psy_rd=1.00:0.15 / mixed_ref=1 / me_range=16 / chroma_me=1 / trellis=1 / 8x8dct=1 / cqm=0 / deadzone=21,11 / fast_pskip=1 / chroma_qp_offset=-3 / threads=6 / lookahead_threads=1 / sliced_threads=0 / nr=0 / decimate=1 / interlaced=0 / bluray_compat=0 / constrained_intra=0 / bframes=3 / b_pyramid=2 / b_adapt=2 / b_bias=0 / direct=3 / weightb=1 / open_gop=0 / weightp=2 / keyint=250 / keyint_min=25 / scenecut=40 / intra_refresh=0 / rc_lookahead=50 / rc=crf / mbtree=1 / crf=20.0000 / qcomp=0.60 / qpmin=0 / qpmax=69 / qpstep=4 / ip_ratio=1.40 / aq=1:1.00
Language : English
Audio #2
ID : 2
Format : AC-3
Format/Info : Audio Coding 3
Format profile : Dolby Digital
Mode extension : CM (complete main)
Codec ID : A_AC3
Duration : 44mn 59s
Bit rate mode : Constant
Bit rate : 384 Kbps
Channel(s) : 2 channels
Channel positions : Front: L R
Sampling rate : 48.0 KHz
Bit depth : 16 bits
Compression mode : Lossy
Stream size : 124 MiB (12%)
Language : English

ScreenShots

National Geographic - Save the Titanic with Bob Ballard (2013)

National Geographic - Save the Titanic with Bob Ballard (2013)

National Geographic - Save the Titanic with Bob Ballard (2013)

National Geographic - Save the Titanic with Bob Ballard (2013)

National Geographic - Save the Titanic with Bob Ballard (2013)

For more, Visit my AH-blog

no mirrors please, Follow The Rules