Tags
Language
Tags

Save the Cinema (2022)

Posted By: Without
1080p (FullHD) / WEB-DL IMDb
Save the Cinema (2022)

Save the Cinema (2022)
WEB-DL 1080p | MKV | 1 h 44 min | 5.83 GB | 1920x1080 | AVC@7830 kb/s | English AC3@192 kb/s, 6 ch
Subs: English
Genre: Drama

The story of Liz Evans, who lives in Carmarthen South West Wales, who starts a campaign in the 90s to save the Lyric Cinema.



General
Save.the.Cinema.2022.1080p.NOW.WEB-DL.DDP5.1.H.264-MiU.mkv
Format : Matroska
Format version : Version 4 / Version 2
File size : 5.83 GB
Duration : 1 h 44 min
Overall bit rate : 8003 kb/s
Movie name : Save the Cinema (2022)
Encoded date : UTC 2022-03-27 14:42:44
Writing application : mkvmerge v66.0.0 ('Josie') 64-bit
Writing library : libebml v1.4.2 + libmatroska v1.6.4

Video
ID : 1
Format : AVC
Format/Info : Advanced Video Codec
Format profile : High@L4.1
Format settings, CABAC : Yes
Format settings, ReFrames : 2 frames
Codec ID : V_MPEG4/ISO/AVC
Duration : 1 h 44 min
Bit rate mode : Constant
Bit rate : 7830 kb/s
Width : 1920 pixels
Height : 1080 pixels
Display aspect ratio : 16:9
Frame rate mode : Constant
Frame rate : 25.000 FPS
Color space : YUV
Chroma subsampling : 4:2:0
Bit depth : 8 bits
Scan type : Progressive
Bits/(Pixel*Frame) : 0.151
Stream size : 5.69 GB (98%)
Language : English
Default : Yes
Forced : No

Audio
ID : 2
Format : E-AC-3
Format/Info : Enhanced Audio Coding 3
Format settings, Endianness : Big
Codec ID : A_EAC3
Duration : 1 h 44 min
Bit rate mode : Constant
Bit rate : 192 kb/s
Channel(s) : 6 channels
Channel positions : Front: L C R, Side: L R, LFE
Sampling rate : 48.0 kHz
Frame rate : 187.500 FPS (256 spf)
Compression mode : Lossy
Stream size : 143 MB (2%)
Title : United Kingdom
Language : English
Default : Yes
Forced : No

Text #1
ID : 3
Format : UTF-8
Codec ID : S_TEXT/UTF8
Codec ID/Info : UTF-8 Plain Text
Duration : 1 h 38 min
Bit rate : 96 b/s
Count of elements : 1750
Stream size : 69.5 KiB (0%)
Title : United Kingdom
Language : English
Default : No
Forced : No

Text #2
ID : 4
Format : UTF-8
Codec ID : S_TEXT/UTF8
Codec ID/Info : UTF-8 Plain Text
Duration : 1 h 38 min
Bit rate : 110 b/s
Count of elements : 1986
Stream size : 79.7 KiB (0%)
Title : United Kingdom (SDH)
Language : English
Default : No
Forced : No



WEB-DL 1080p Screenshots

Save the Cinema (2022)

Save the Cinema (2022)

Save the Cinema (2022)

Save the Cinema (2022)


Come Visit My Blog (•‿•)