Tags
Language
Tags

Scarlet Diva (2000)

Posted By: Tavaz
720p (HD) / BDRip IMDb
Scarlet Diva (2000)

Scarlet Diva (2000)
BDRip | MKV | 1280x692 | English | H264 @ 7731 kbps | FLAC @ 1402 kbps | 1 h 30 min | 5.91 GiB
Subtitles: English
Genre: Drama

A young Italian actress embarks on a self-destructive spree of sex, drugs and other excess while doing some soul searching to find the path for redemption.

scarlet.diva.2000.720p.bluray.x264-pegasus.mkv (5.9 GB)



General
Unique ID : 198284073497797995907727602038144463063 (0x952C1F9B5DBA1B66D5118016199F70D7)
Complete name : ./scarlet.diva.2000.720p.bluray.x264-pegasus.mkv
Format : Matroska
Format version : Version 4 / Version 2
File size : 5.91 GiB
Duration : 1 h 30 min
Overall bit rate mode : Variable
Overall bit rate : 9 323 kb/s
Movie name : Scarlet Diva [2000] 720p BluRay - PEGASUS
Encoded date : UTC 2021-11-07 03:17:19
Writing application : mkvmerge v62.0.0 ('Apollo') 64-bit
Writing library : libebml v1.4.2 + libmatroska v1.6.4

Video
ID : 1
Format : AVC
Format/Info : Advanced Video Codec
Format profile : High@L4.1
Format settings : CABAC / 9 Ref Frames
Format settings, CABAC : Yes
Format settings, RefFrames : 9 frames
Codec ID : V_MPEG4/ISO/AVC
Duration : 1 h 30 min
Bit rate : 7 732 kb/s
Width : 1 280 pixels
Height : 692 pixels
Display aspect ratio : 1.85:1
Frame rate mode : Constant
Frame rate : 23.976 (24000/1001) FPS
Color space : YUV
Chroma subsampling : 4:2:0
Bit depth : 8 bits
Scan type : Progressive
Bits/(Pixel*Frame) : 0.364
Stream size : 4.90 GiB (83%)
Writing library : x264 core 163 r3059 b684ebe0
Encoding settings : cabac=1 / ref=9 / deblock=1:-3:-3 / analyse=0x3:0x133 / me=umh / subme=10 / psy=1 / psy_rd=1.00:0.00 / mixed_ref=1 / me_range=32 / chroma_me=1 / trellis=2 / 8x8dct=1 / cqm=0 / deadzone=21,11 / fast_pskip=0 / chroma_qp_offset=-2 / threads=22 / lookahead_threads=5 / sliced_threads=0 / nr=0 / decimate=0 / interlaced=0 / bluray_compat=0 / constrained_intra=0 / bframes=16 / b_pyramid=2 / b_adapt=2 / b_bias=0 / direct=3 / weightb=1 / open_gop=0 / weightp=2 / keyint=240 / keyint_min=24 / scenecut=40 / intra_refresh=0 / rc_lookahead=60 / rc=crf / mbtree=0 / crf=20.5 / qcomp=0.60 / qpmin=0 / qpmax=69 / qpstep=4 / vbv_maxrate=62500 / vbv_bufsize=78125 / crf_max=0.0 / nal_hrd=none / filler=0 / ip_ratio=1.40 / pb_ratio=1.30 / aq=2:1.00
Default : Yes
Forced : No
Color range : Limited
Color primaries : BT.709
Transfer characteristics : BT.709
Matrix coefficients : BT.709

Audio #1
ID : 2
Format : FLAC
Format/Info : Free Lossless Audio Codec
Codec ID : A_FLAC
Duration : 1 h 30 min
Bit rate mode : Variable
Bit rate : 1 402 kb/s
Channel(s) : 2 channels
Channel positions : Front: L R
Sampling rate : 48.0 kHz
Frame rate : 11.719 FPS (4096 SPF)
Bit depth : 24 bits
Stream size : 909 MiB (15%)
Writing library : libFLAC 1.2.1 (UTC 2007-09-17)
Language : English
Default : Yes
Forced : No

Audio #2
ID : 3
Format : AAC
Format/Info : Advanced Audio Codec
Format profile : LC
Codec ID : A_AAC-2
Duration : 1 h 30 min
Bit rate : 104 kb/s
Channel(s) : 2 channels
Channel positions : Front: L R
Sampling rate : 48.0 kHz
Frame rate : 46.875 FPS (1024 SPF)
Compression mode : Lossy
Stream size : 67.6 MiB (1%)
Title : Commentary 1
Language : English
Default : No
Forced : No

Audio #3
ID : 4
Format : AAC
Format/Info : Advanced Audio Codec
Format profile : LC
Codec ID : A_AAC-2
Duration : 1 h 30 min
Bit rate : 75.1 kb/s
Channel(s) : 2 channels
Channel positions : Front: L R
Sampling rate : 48.0 kHz
Frame rate : 46.875 FPS (1024 SPF)
Compression mode : Lossy
Stream size : 48.7 MiB (1%)
Title : Commentary 2
Language : English
Default : No
Forced : No

Text #1
ID : 5
Format : UTF-8
Codec ID : S_TEXT/UTF8
Codec ID/Info : UTF-8 Plain Text
Duration : 1 h 22 min
Bit rate : 14 b/s
Count of elements : 344
Stream size : 8.88 KiB (0%)
Title : forced for foreign language
Language : English
Default : Yes
Forced : Yes

Text #2
ID : 6
Format : PGS
Muxing mode : zlib
Codec ID : S_HDMV/PGS
Codec ID/Info : Picture based subtitle format used on BDs/HD-DVDs
Duration : 1 h 29 min
Bit rate : 41.6 kb/s
Count of elements : 2512
Stream size : 26.7 MiB (0%)
Title : SDH
Language : English
Default : No
Forced : No

Menu
00:00:00.000 : :Chapter 1
00:08:18.415 : :Chapter 2
00:16:26.444 : :Chapter 3
00:28:07.644 : :Chapter 4
00:34:30.652 : :Chapter 5
00:39:53.141 : :Chapter 6
00:50:03.250 : :Chapter 7
00:55:14.520 : :Chapter 8
01:03:07.993 : :Chapter 9
01:10:11.290 : :Chapter 10
01:20:11.890 : :Chapter 11
01:25:56.526 : :Chapter 12
01:30:36.806 : :Chapter 13





Scarlet Diva (2000)


Scarlet Diva (2000)


Scarlet Diva (2000)


Scarlet Diva (2000)


Scarlet Diva (2000)