National Geographic - Science of Babies (2007)

Posted By: Tutorial
National Geographic - Science of Babies (2007)

National Geographic - Science of Babies (2007)
HDTV | 1280 x 720 | .AVI/XviD @ 3996 Kbps | 50 min 20 s | 1.45 GB
Audio: English MP3 128 Kbps, 2 channels | Subs: None
Genre: Documentary, Science, Health-Medical

As new parents can attest, children develop so much in the first year of their life it's hard to keep up. From the moment they draw their initial breath - itself an incredibly complicated biological feat - to their first steps, it's a year of remarkable development.
In The Science of Babies, Nat Geo explores the amazing biomechanical benchmarks achieved in the first 12 months of human life. Using CGI, fMRI and other tools, viewers can watch as a baby's lungs draw breath for the first time, and can witness the heart grow exponentially in order to power this incredible developing creature. Perhaps even more fascinating is the manner in which the neurosynapses develop, creating the essence of what will become a new personality and intellect. This film explores the amazing mechanics behind the initial milestones in a human infant's life, and even compares them to babies of other species.
Beyond simply being a beautiful film to watch, the technology that Nat Geo uses to help tell the tale is remarkable.

Related Documentaries:
BBC - Inside the Human Body: Series 1 (2011)
ABC - Becoming Superhuman (2016)
BBC - Human Senses (2003)
The Milky Way (2014)
Femme (2013)
Babies (2010)
First Comes Love (2013)
ITV - Secret Life of Babies (2014)
The Beginning of Life (2016)
BBC - How to Build a Human (2005)
The Secret Life of Children's Books (2016)

General
Complete name : National.Geographic.Science.of.Babies.avi
Format : AVI
Format/Info : Audio Video Interleave
File size : 1.45 GiB
Duration : 50 min 20 s
Overall bit rate : 4 134 kb/s
Writing application : VirtualDubMod 1.5.10.2 (build 2540/release)
Writing library : VirtualDubMod build 2540/release

Video
ID : 0
Format : MPEG-4 Visual
Format profile : Simple@L3
Format settings, BVOP : 2
Format settings, QPel : No
Format settings, GMC : No warppoints
Format settings, Matrix : Default (H.263)
Muxing mode : Packed bitstream
Codec ID : XVID
Codec ID/Hint : XviD
Duration : 50 min 20 s
Bit rate : 3 996 kb/s
Width : 1 280 pixels
Height : 720 pixels
Display aspect ratio : 16:9
Frame rate : 25.000 FPS
Color space : YUV
Chroma subsampling : 4:2:0
Bit depth : 8 bits
Scan type : Progressive
Compression mode : Lossy
Bits/(Pixel*Frame) : 0.173
Stream size : 1.41 GiB (97%)
Writing library : XviD 1.0.3 (UTC 2004-12-20)

Audio
ID : 1
Format : MPEG Audio
Format version : Version 1
Format profile : Layer 3
Mode : Joint stereo
Codec ID : 55
Codec ID/Hint : MP3
Duration : 50 min 20 s
Bit rate mode : Constant
Bit rate : 128 kb/s
Channel(s) : 2 channels
Sampling rate : 48.0 kHz
Compression mode : Lossy
Stream size : 46.1 MiB (3%)
Alignment : Aligned on interleaves
Interleave, duration : 40 ms (1.00 video frame)
Interleave, preload duration : 72 ms
Writing library : LAME3.97
Encoding settings : -m j -V 4 -q 2 -lowpass 17 -b 128
Screenshots

National Geographic - Science of Babies (2007)

National Geographic - Science of Babies (2007)

National Geographic - Science of Babies (2007)

National Geographic - Science of Babies (2007)

Welcome to my blog - daily update!

National Geographic - Science of Babies (2007)