Scooby-Doo! and the Gourmet Ghost (2018)

Posted By: Without
720p (HD) / WEB-DL IMDb
Scooby-Doo! and the Gourmet Ghost (2018)

Scooby-Doo! and the Gourmet Ghost (2018)
HDRip | AVI | 720x400 | XviD@1498 kb/s | English AC3@384 kb/s | 6 channels | 1 h 17 min | 1.01 GB
WEB-DL 720p | MKV | 1280x718 | AVC@3943 kb/s | English AC3@384 kb/s | 6 channels | 1 h 17 min | 2.38 GB
Genre: Animation, Adventure, Crime

Your favorite teen sleuths go on an unforgettable adventure to New England, where they investigate the haunting of a historic colonial inn that's been turned into a state-of-the-art, culinary resort.



General
Scooby.Doo.and.the.Gourmet.Ghost.2018.HDRip.XviD.AC3-EVO.avi
Format : AVI
Format/Info : Audio Video Interleave
File size : 1.02 GiB
Duration : 1 h 17 min
Overall bit rate : 1 892 kb/s
Writing library : VirtualDub build 32593/release

Video
ID : 0
Format : MPEG-4 Visual
Format profile : Advanced Simple@L5
Format settings, BVOP : 2
Format settings, QPel : No
Format settings, GMC : No warppoints
Format settings, Matrix : Default (H.263)
Muxing mode : Packed bitstream
Codec ID : XVID
Codec ID/Hint : XviD
Duration : 1 h 17 min
Bit rate : 1 498 kb/s
Width : 720 pixels
Height : 400 pixels
Display aspect ratio : 16:9
Frame rate : 23.976 (24000/1001) FPS
Color space : YUV
Chroma subsampling : 4:2:0
Bit depth : 8 bits
Scan type : Progressive
Compression mode : Lossy
Bits/(Pixel*Frame) : 0.217
Stream size : 828 MiB (79%)
Writing library : XviD 66

Audio
ID : 1
Format : AC-3
Format/Info : Audio Coding 3
Mode extension : CM (complete main)
Format settings, Endianness : Big
Codec ID : 2000
Duration : 1 h 17 min
Bit rate mode : Constant
Bit rate : 384 kb/s
Channel(s) : 6 channels
Channel positions : Front: L C R, Side: L R, LFE
Sampling rate : 48.0 kHz
Frame rate : 31.250 FPS (1536 spf)
Bit depth : 16 bits
Compression mode : Lossy
Stream size : 212 MiB (20%)
Alignment : Aligned on interleaves
Interleave, duration : 42 ms (1.00 video frame)
Interleave, preload duration : 512 ms


General
Scooby.Doo.and.the.Gourmet.Ghost.2018.720p.WEB-DL.H264.AC3-EVO.mkv
Format : Matroska
Format version : Version 4 / Version 2
File size : 2.38 GiB
Duration : 1 h 17 min
Overall bit rate : 4 415 kb/s
Encoded date : UTC 2018-08-28 09:15:32
Writing application : mkvmerge v6.7.0 ('Back to the Ground') 64bit built on Jan 8 2014 15:10:52
Writing library : libebml v1.3.0 + libmatroska v1.4.1

Video
ID : 2
Format : AVC
Format/Info : Advanced Video Codec
Format profile : High@L3.1
Format settings, CABAC : No
Format settings, ReFrames : 2 frames
Codec ID : V_MPEG4/ISO/AVC
Duration : 1 h 17 min
Bit rate : 3 943 kb/s
Width : 1 280 pixels
Height : 718 pixels
Display aspect ratio : 16:9
Frame rate mode : Constant
Frame rate : 23.976 FPS
Color space : YUV
Chroma subsampling : 4:2:0
Bit depth : 8 bits
Scan type : Progressive
Bits/(Pixel*Frame) : 0.179
Stream size : 2.13 GiB (89%)
Language : English
Default : Yes
Forced : No
Color range : Limited
Color primaries : BT.709
Transfer characteristics : BT.709
Matrix coefficients : BT.709

Audio
ID : 1
Format : AC-3
Format/Info : Audio Coding 3
Mode extension : CM (complete main)
Format settings, Endianness : Big
Codec ID : A_AC3
Duration : 1 h 17 min
Bit rate mode : Constant
Bit rate : 384 kb/s
Channel(s) : 6 channels
Channel positions : Front: L C R, Side: L R, LFE
Sampling rate : 48.0 kHz
Frame rate : 31.250 FPS (1536 spf)
Bit depth : 16 bits
Compression mode : Lossy
Stream size : 212 MiB (9%)
Language : English
Default : Yes
Forced : No

Menu
00:00:00.000 : en:1
00:08:01.000 : en:2
00:19:32.000 : en:3
00:28:01.000 : en:4
00:36:36.000 : en:5
00:45:18.000 : en:6
00:54:49.000 : en:7
01:04:50.000 : en:8
01:14:38.000 : en:9



HDRip Screenshots

Scooby-Doo! and the Gourmet Ghost (2018)

Scooby-Doo! and the Gourmet Ghost (2018)

Scooby-Doo! and the Gourmet Ghost (2018)


WEB-DL 720p Screenshots

Scooby-Doo! and the Gourmet Ghost (2018)

Scooby-Doo! and the Gourmet Ghost (2018)

Scooby-Doo! and the Gourmet Ghost (2018)


Come Visit My Blog (•‿•)