National Geographic - Search For The Super Snake (2012)

Posted By: ParRus
National Geographic - Search For The Super Snake (2012)

National Geographic - Search For The Super Snake (2012)
HDTV | English | MKV | 1280 x 720 | AVC ~3685 Kbps | 25 fps
AC-3 | 448 kbps | 48.0 KHz | 2 channels | 00:50:28 | 1.46 GB
Genre: Documentary

Giant Snakes. The serpents of our nightmares. Reaching more than 30 feet long and hiding in the swamps, the trees and the basement. Today's giant snakes are as big as they've ever been, and their appetites may have never been bigger. Over 100 teeth, 500 vertebrae, 1000 ribs, and 10,000 muscles work together to form natures most elegant predator. But what are the limits of these enormous serpents? How big can they grow, constrict and consume?
General
Complete name : National.Geographic.Search.For.The.Supersnake.mkv
Format : Matroska
Format version : Version 1
File size : 1.46 GiB
Duration : 50mn 28s
Overall bit rate : 4 137 Kbps
Encoded date : UTC 2008-09-13 21:07:41
Writing application : mkvmerge v2.2.0 ('Turn It On Again') built on Mar 4 2008 12:58:26
Writing library : libebml v0.7.7 + libmatroska v0.8.1
Video #1
ID : 1
Format : AVC
Format/Info : Advanced Video Codec
Format profile : High@L5.1
Format settings, CABAC : Yes
Format settings, ReFrames : 5 frames
Codec ID : V_MPEG4/ISO/AVC
Duration : 50mn 28s
Bit rate : 3 685 Kbps
Width : 1 280 pixels
Height : 720 pixels
Display aspect ratio : 16:9
Frame rate : 25.000 fps
Color space : YUV
Chroma subsampling : 4:2:0
Bit depth : 8 bits
Scan type : Progressive
Bits/(Pixel*Frame) : 0.160
Stream size : 1.27 GiB (87%)
Title : Video
Writing library : x264 core 59 r871 100d067
Encoding settings : cabac=1 / ref=5 / deblock=1:0:0 / analyse=0x3:0x133 / me=esa / subme=7 / brdo=1 / mixed_ref=1 / me_range=16 / chroma_me=1 / trellis=1 / 8x8dct=1 / cqm=0 / deadzone=21,11 / chroma_qp_offset=0 / threads=3 / nr=0 / decimate=1 / mbaff=0 / bframes=3 / b_pyramid=0 / b_adapt=1 / b_bias=0 / direct=1 / wpredb=1 / bime=1 / keyint=250 / keyint_min=25 / scenecut=40(pre) / rc=2pass / bitrate=3685 / ratetol=1.0 / rceq='blurCplx^(1-qComp)' / qcomp=1.00 / qpmin=10 / qpmax=51 / qpstep=4 / cplxblur=20.0 / qblur=0.5 / ip_ratio=1.40 / pb_ratio=1.30 / aq=2:1.00
Audio #2
ID : 2
Format : AC-3
Format/Info : Audio Coding 3
Format profile : Dolby Digital
Mode extension : CM (complete main)
Codec ID : A_AC3
Duration : 50mn 28s
Bit rate mode : Constant
Bit rate : 448 Kbps
Channel(s) : 2 channels
Channel positions : Front: L R
Sampling rate : 48.0 KHz
Bit depth : 16 bits
Compression mode : Lossy
Stream size : 162 MiB (11%)
Title : English (AC3)
Language : English

ScreenShots

National Geographic - Search For The Super Snake (2012)

National Geographic - Search For The Super Snake (2012)

National Geographic - Search For The Super Snake (2012)

National Geographic - Search For The Super Snake (2012)

For more, Visit my AH-blog

no mirrors please, Follow The Rules