Tags
Language
Tags

La dolce vita (1960)

Posted By: Tavaz
SD / HDTV IMDb
La dolce vita (1960)

La dolce vita (1960)
MOV | 1280x720 | English | H264 @ 660 kbps | AAC @ 96 kbps | 2 h 54 min | 965 MiB
Genre: Comedy, Drama

A series of stories following a week in the life of a philandering paparazzo journalist living in Rome.

La Dolce Vita (1960) HC English m720p.m4v (964.7 MB)



General
Complete name : ./La Dolce Vita (1960) HC English m720p.m4v
Format : MPEG-4
Format profile : Base Media / Version 2
Codec ID : mp42 (isom/iso2/avc1/mp41)
File size : 965 MiB
Duration : 2 h 54 min
Overall bit rate : 772 kb/s
Movie name : La Dolce Vita
Performer : Marcello Mastroianni, Anita Ekberg, Anouk Aimée, Yvonne Furneaux, Magali Noël, Alain Cuny, Annibale Ninchi, Walter Santesso, Valeria Ciangottini, Riccardo Garrone, Ida Galli, Lex Barker, Nadia Gray, Adriano Celentano, Jacques Sernas, Polidor, Enrico …
Director : Federico Fellini
Actor : Marcello Mastroianni / Anita Ekberg / Anouk Aimée / Yvonne Furneaux / Magali Noël / Alain Cuny / Annibale Ninchi / Walter Santesso / Valeria Ciangottini / Riccardo Garrone / Ida Galli / Lex Barker / Nadia Gray / Adriano Celentano / Jacques Sernas / Polidor / Enrico …
Screenplay by : Federico Fellini / Ennio Flaiano / Pier Paolo Pasolini / Tullio Pinelli / Brunello Rondi
Producer : Giuseppe Amato / Angelo Rizzoli
Production studio : The Criterion Collection
Genre : Comedy, Drama
ContentType : Short Film
Description : The world's most talked about movie today!
Recorded date : 1960-02-05
Encoded date : UTC 2017-07-29 01:13:08
Tagged date : UTC 2017-08-31 20:48:11
Writing application : HandBrake 1.0.2 2017012200
Cover : Yes
LongDescription : Episodic journey of an Italian journalist scouring Rome in search of love.
HDVideo : Yes
AppleStoreCatalogID : 439
Xtra : WM/Producer

Video
ID : 1
Format : AVC
Format/Info : Advanced Video Codec
Format profile : Main@L4
Format settings : CABAC / 4 Ref Frames
Format settings, CABAC : Yes
Format settings, RefFrames : 4 frames
Codec ID : avc1
Codec ID/Info : Advanced Video Coding
Duration : 2 h 54 min
Bit rate : 661 kb/s
Width : 1 280 pixels
Height : 720 pixels
Display aspect ratio : 16:9
Frame rate mode : Variable
Frame rate : 23.976 (24000/1001) FPS
Minimum frame rate : 23.974 FPS
Maximum frame rate : 23.981 FPS
Color space : YUV
Chroma subsampling : 4:2:0
Bit depth : 8 bits
Scan type : Progressive
Bits/(Pixel*Frame) : 0.030
Stream size : 826 MiB (86%)
Writing library : x264 core 148 r2708 86b7198
Encoding settings : cabac=1 / ref=2 / deblock=1:0:0 / analyse=0x1:0x111 / me=hex / subme=6 / psy=1 / psy_rd=1.00:0.00 / mixed_ref=1 / me_range=16 / chroma_me=1 / trellis=1 / 8x8dct=0 / cqm=0 / deadzone=21,11 / fast_pskip=1 / chroma_qp_offset=-2 / threads=12 / lookahead_threads=2 / sliced_threads=0 / nr=0 / decimate=1 / interlaced=0 / bluray_compat=0 / constrained_intra=0 / bframes=3 / b_pyramid=2 / b_adapt=1 / b_bias=0 / direct=1 / weightb=1 / open_gop=0 / weightp=1 / keyint=240 / keyint_min=24 / scenecut=40 / intra_refresh=0 / rc_lookahead=30 / rc=crf / mbtree=1 / crf=26.0 / qcomp=0.60 / qpmin=0 / qpmax=69 / qpstep=4 / vbv_maxrate=20000 / vbv_bufsize=25000 / crf_max=0.0 / nal_hrd=none / filler=0 / ip_ratio=1.40 / aq=1:1.00
Language : English
Encoded date : UTC 2017-07-29 01:13:08
Tagged date : UTC 2017-07-29 01:13:08
Color range : Limited
Color primaries : BT.709
Transfer characteristics : BT.709
Matrix coefficients : BT.709

Audio
ID : 2
Format : AAC
Format/Info : Advanced Audio Codec
Format profile : LC
Codec ID : mp4a-40-2
Duration : 2 h 54 min
Bit rate mode : Constant
Bit rate : 96.0 kb/s
Channel(s) : 2 channels
Channel positions : Front: L R
Sampling rate : 48.0 kHz
Frame rate : 46.875 FPS (1024 SPF)
Compression mode : Lossy
Stream size : 121 MiB (13%)
Title : Stereo / Stereo
Default : Yes
Alternate group : 1
Encoded date : UTC 2017-07-29 01:13:08
Tagged date : UTC 2017-07-29 01:13:08





La dolce vita (1960)


La dolce vita (1960)


La dolce vita (1960)


La dolce vita (1960)


La dolce vita (1960)