Tags
Language
Tags

Selena (1997) [Extended]

Posted By: Without
1080p (FullHD) / BDRip IMDb
Selena (1997) [Extended]

Selena (1997)
BDRip 720p | MKV | 2 h 13 min | 5.86 GB | 1280x534 | AVC@5597 kb/s | English AC3@640 kb/s, 6 ch
BDRip 1080p | MKV | 2 h 13 min | 17.1 GB | 1920x802 | AVC@14.1 Mb/s | English DTS-HD MA@4190 kb/s, 6 ch
Subs: English
Genre: Biography | Drama | Music

The true story of Selena Quintanilla, a Texas-born Tejano singer who rose from cult status to performing at the Astrodome, as well as having chart topping albums on the Latin music charts.

IMDB - Nominated for 1 Golden Globe. Another 8 wins & 5 nominations.


General
Selena.1997.EXTENDED.720p.BluRay.X264-AMIABLE.mkv
Format : Matroska
Format version : Version 4 / Version 2
File size : 5.86 GB
Duration : 2 h 13 min
Overall bit rate : 6261 kb/s
Writing application : mkvmerge v47.0.0 ('Black Flag') 64-bit
Writing library : libebml v1.3.10 + libmatroska v1.5.2

Video
ID : 1
Format : AVC
Format/Info : Advanced Video Codec
Format profile : High@L4.1
Format settings, CABAC : Yes
Format settings, ReFrames : 8 frames
Codec ID : V_MPEG4/ISO/AVC
Duration : 2 h 13 min
Bit rate : 5597 kb/s
Width : 1280 pixels
Height : 534 pixels
Display aspect ratio : 2.40:1
Frame rate mode : Constant
Frame rate : 23.976 (24000/1001) FPS
Color space : YUV
Chroma subsampling : 4:2:0
Bit depth : 8 bits
Scan type : Progressive
Bits/(Pixel*Frame) : 0.342
Stream size : 5.23 GB (89%)
Writing library : x264 core 161 r3018 db0d417
Encoding settings : cabac=1 / ref=8 / deblock=1:-3:-3 / analyse=0x3:0x133 / me=umh / subme=9 / psy=1 / psy_rd=1.05:0.00 / mixed_ref=1 / me_range=24 / chroma_me=1 / trellis=2 / 8x8dct=1 / cqm=0 / deadzone=21,11 / fast_pskip=0 / chroma_qp_offset=-2 / threads=17 / lookahead_threads=1 / sliced_threads=0 / nr=0 / decimate=0 / interlaced=0 / bluray_compat=0 / constrained_intra=0 / bframes=3 / b_pyramid=2 / b_adapt=2 / b_bias=0 / direct=3 / weightb=1 / open_gop=0 / weightp=2 / keyint=250 / keyint_min=23 / scenecut=40 / intra_refresh=0 / rc=crf / mbtree=0 / crf=17.0 / qcomp=0.60 / qpmin=0 / qpmax=69 / qpstep=4 / ip_ratio=1.40 / pb_ratio=1.30 / aq=3:0.70
Default : Yes
Forced : No
Color range : Limited
Matrix coefficients : BT.709

Audio
ID : 2
Format : AC-3
Format/Info : Audio Coding 3
Mode extension : CM (complete main)
Format settings, Endianness : Big
Codec ID : A_AC3
Duration : 2 h 13 min
Bit rate mode : Constant
Bit rate : 640 kb/s
Channel(s) : 6 channels
Channel positions : Front: L C R, Side: L R, LFE
Sampling rate : 48.0 kHz
Frame rate : 31.250 FPS (1536 spf)
Bit depth : 16 bits
Compression mode : Lossy
Stream size : 613 MB (10%)
Title : AC-3 5.1
Language : English
Default : Yes
Forced : No

Text #1
ID : 3
Format : UTF-8
Codec ID : S_TEXT/UTF8
Codec ID/Info : UTF-8 Plain Text
Duration : 2 h 12 min
Bit rate : 71 b/s
Count of elements : 2064
Stream size : 69.4 KiB (0%)
Title : Stripped SRT
Language : English
Default : No
Forced : No

Text #2
ID : 4
Format : UTF-8
Codec ID : S_TEXT/UTF8
Codec ID/Info : UTF-8 Plain Text
Duration : 2 h 13 min
Bit rate : 79 b/s
Count of elements : 2366
Stream size : 78.1 KiB (0%)
Title : SDH SRT
Language : English
Default : No
Forced : No

Text #3
ID : 5
Format : PGS
Muxing mode : zlib
Codec ID : S_HDMV/PGS
Codec ID/Info : Picture based subtitle format used on BDs/HD-DVDs
Duration : 2 h 13 min
Bit rate : 41.5 kb/s
Count of elements : 4732
Stream size : 39.7 MB (1%)
Title : English SDH
Language : English
Default : No
Forced : No

Menu
00:00:00.000 : en:Chapter 01
00:03:36.174 : en:Chapter 02
00:07:15.852 : en:Chapter 03
00:11:23.474 : en:Chapter 04
00:14:13.019 : en:Chapter 05
00:18:18.597 : en:Chapter 06
00:22:41.944 : en:Chapter 07
00:23:44.173 : en:Chapter 08
00:25:57.931 : en:Chapter 09
00:33:48.109 : en:Chapter 10
00:36:03.411 : en:Chapter 11
00:40:03.151 : en:Chapter 12
00:43:51.504 : en:Chapter 13
00:47:47.573 : en:Chapter 14
00:51:59.950 : en:Chapter 15
00:54:49.786 : en:Chapter 16
00:58:02.229 : en:Chapter 17
01:01:55.879 : en:Chapter 18
01:04:05.842 : en:Chapter 19
01:07:09.859 : en:Chapter 20
01:16:26.207 : en:Chapter 21
01:19:02.905 : en:Chapter 22
01:23:12.654 : en:Chapter 23
01:25:13.775 : en:Chapter 24
01:29:57.350 : en:Chapter 25
01:31:39.619 : en:Chapter 26
01:35:04.699 : en:Chapter 27
01:42:29.060 : en:Chapter 28
01:47:09.131 : en:Chapter 29
01:49:47.998 : en:Chapter 30
01:50:45.889 : en:Chapter 31
01:54:30.739 : en:Chapter 32
01:55:23.625 : en:Chapter 33
01:57:31.836 : en:Chapter 34
02:00:23.091 : en:Chapter 35
02:06:57.318 : en:Chapter 36
02:10:12.763 : en:Chapter 37


General
Selena.1997.EXTENDED.1080p.BluRay.X264-AMIABLE.mkv
Format : Matroska
Format version : Version 4 / Version 2
File size : 17.1 GB
Duration : 2 h 13 min
Overall bit rate : 18.3 Mb/s
Writing application : mkvmerge v47.0.0 ('Black Flag') 64-bit
Writing library : libebml v1.3.10 + libmatroska v1.5.2

Video
ID : 1
Format : AVC
Format/Info : Advanced Video Codec
Format profile : High@L4.1
Format settings, CABAC : Yes
Format settings, ReFrames : 5 frames
Codec ID : V_MPEG4/ISO/AVC
Duration : 2 h 13 min
Bit rate : 14.1 Mb/s
Width : 1920 pixels
Height : 802 pixels
Display aspect ratio : 2.40:1
Frame rate mode : Constant
Frame rate : 23.976 (24000/1001) FPS
Color space : YUV
Chroma subsampling : 4:2:0
Bit depth : 8 bits
Scan type : Progressive
Bits/(Pixel*Frame) : 0.381
Stream size : 13.2 GB (77%)
Writing library : x264 core 161 r3018 db0d417
Encoding settings : cabac=1 / ref=5 / deblock=1:-3:-3 / analyse=0x3:0x133 / me=umh / subme=9 / psy=1 / psy_rd=1.05:0.00 / mixed_ref=1 / me_range=32 / chroma_me=1 / trellis=2 / 8x8dct=1 / cqm=0 / deadzone=21,11 / fast_pskip=0 / chroma_qp_offset=-2 / threads=25 / lookahead_threads=2 / sliced_threads=0 / nr=0 / decimate=0 / interlaced=0 / bluray_compat=0 / constrained_intra=0 / bframes=3 / b_pyramid=2 / b_adapt=2 / b_bias=0 / direct=3 / weightb=1 / open_gop=0 / weightp=2 / keyint=250 / keyint_min=23 / scenecut=40 / intra_refresh=0 / rc=crf / mbtree=0 / crf=17.0 / qcomp=0.60 / qpmin=0 / qpmax=69 / qpstep=4 / ip_ratio=1.40 / pb_ratio=1.30 / aq=3:0.70
Default : Yes
Forced : No
Color range : Limited
Matrix coefficients : BT.709

Audio
ID : 2
Format : DTS
Format/Info : Digital Theater Systems
Format profile : MA / Core
Mode : 16
Format settings, Endianness : Big
Codec ID : A_DTS
Duration : 2 h 13 min
Bit rate mode : Variable / Constant
Bit rate : 4190 kb/s / 1509 kb/s
Channel(s) : 6 channels
Channel positions : Front: L C R, Side: L R, LFE
Sampling rate : 48.0 kHz
Frame rate : 93.750 FPS (512 spf)
Bit depth : 24 bits
Compression mode : Lossless / Lossy
Stream size : 3.92 GB (23%)
Title : DTS-HD MA 5.1
Language : English
Default : Yes
Forced : No

Text #1
ID : 3
Format : UTF-8
Codec ID : S_TEXT/UTF8
Codec ID/Info : UTF-8 Plain Text
Duration : 2 h 12 min
Bit rate : 71 b/s
Count of elements : 2064
Stream size : 69.4 KiB (0%)
Title : Stripped SRT
Language : English
Default : No
Forced : No

Text #2
ID : 4
Format : UTF-8
Codec ID : S_TEXT/UTF8
Codec ID/Info : UTF-8 Plain Text
Duration : 2 h 13 min
Bit rate : 79 b/s
Count of elements : 2366
Stream size : 78.1 KiB (0%)
Title : SDH SRT
Language : English
Default : No
Forced : No

Text #3
ID : 5
Format : PGS
Muxing mode : zlib
Codec ID : S_HDMV/PGS
Codec ID/Info : Picture based subtitle format used on BDs/HD-DVDs
Duration : 2 h 13 min
Bit rate : 41.5 kb/s
Count of elements : 4732
Stream size : 39.7 MB (0%)
Title : English SDH
Language : English
Default : No
Forced : No

Menu
00:00:00.000 : en:Chapter 01
00:03:36.174 : en:Chapter 02
00:07:15.852 : en:Chapter 03
00:11:23.474 : en:Chapter 04
00:14:13.019 : en:Chapter 05
00:18:18.597 : en:Chapter 06
00:22:41.944 : en:Chapter 07
00:23:44.173 : en:Chapter 08
00:25:57.931 : en:Chapter 09
00:33:48.109 : en:Chapter 10
00:36:03.411 : en:Chapter 11
00:40:03.151 : en:Chapter 12
00:43:51.504 : en:Chapter 13
00:47:47.573 : en:Chapter 14
00:51:59.950 : en:Chapter 15
00:54:49.786 : en:Chapter 16
00:58:02.229 : en:Chapter 17
01:01:55.879 : en:Chapter 18
01:04:05.842 : en:Chapter 19
01:07:09.859 : en:Chapter 20
01:16:26.207 : en:Chapter 21
01:19:02.905 : en:Chapter 22
01:23:12.654 : en:Chapter 23
01:25:13.775 : en:Chapter 24
01:29:57.350 : en:Chapter 25
01:31:39.619 : en:Chapter 26
01:35:04.699 : en:Chapter 27
01:42:29.060 : en:Chapter 28
01:47:09.131 : en:Chapter 29
01:49:47.998 : en:Chapter 30
01:50:45.889 : en:Chapter 31
01:54:30.739 : en:Chapter 32
01:55:23.625 : en:Chapter 33
01:57:31.836 : en:Chapter 34
02:00:23.091 : en:Chapter 35
02:06:57.318 : en:Chapter 36
02:10:12.763 : en:Chapter 37



BDRip 720p Screenshots

Selena (1997) [Extended]

Selena (1997) [Extended]

Selena (1997) [Extended]


BDRip 1080p Screenshots

Selena (1997) [Extended]

Selena (1997) [Extended]

Selena (1997) [Extended]


Come Visit My Blog (•‿•)